<?xml version="1.0" standalone="no"?>
<!DOCTYPE svg PUBLIC "-//W3C//DTD SVG 1.1//EN" "http://www.w3.org/Graphics/SVG/1.1/DTD/svg11.dtd" >
<svg xmlns="http://www.w3.org/2000/svg" xmlns:xlink="http://www.w3.org/1999/xlink" version="1.1">
<metadata>
Created by FontForge 20190801 at Fri Jan  1 01:00:00 1904
 By Jimmy Wärting
 
</metadata>
<defs>
<font id="Bodoni-Italic" horiz-adv-x="534" >
  <font-face 
    font-family="Bodoni"
    font-weight="400"
    font-style="italic"
    font-stretch="normal"
    units-per-em="1000"
    panose-1="0 0 0 0 0 0 0 0 0 0"
    ascent="800"
    descent="-200"
    x-height="426"
    cap-height="661"
    bbox="-181 -252 1078 857"
    underline-thickness="50"
    underline-position="-105"
    unicode-range="U+0020-2219"
  />
<missing-glyph 
d="M242 20h29q-1 -8 -1.5 -14.5t-0.5 -13.5v-9.5t1 -9.5q0 -5 0.5 -9.5t1.5 -9.5q3 -20 5.5 -34t2.5 -24v-6t-1 -6q-5 -34 -36 -64.5t-74 -42.5l-13 15q14 9 21.5 16t10.5 13q2 4 3 8.5t1 9.5v7.5t-1 7.5q-1 6 -1.5 12t-1.5 11q0 4 -0.5 8t-0.5 9q0 11 4 24.5t10 27.5
q4 9 8 17t8 15q7 14 14 24.5t11 17.5v0zM478 426l-97 -367q0 -1 -0.5 -2.5t-0.5 -3.5t-0.5 -3.5t-0.5 -2.5q-1 -3 -1 -5.5v-4.5q0 -7 3.5 -11t7.5 -5q3 -1 5.5 -1.5t3.5 -0.5q10 0 18 6.5t15 13.5q2 3 4 5.5t4 4.5q8 10 14.5 18.5t11.5 17.5q3 4 5.5 8t4.5 8q4 7 8 15l9 18
l14 -7q-43 -95 -81.5 -116t-64.5 -21q-31 0 -47.5 19t-16.5 47q0 12 2 22.5t5 20.5q1 5 2 9l2 8l4 17h-2q-26 -38 -61 -71.5t-72 -52.5q-18 -9 -35.5 -14t-34.5 -5q-37 0 -58.5 20.5t-21.5 70.5q0 5 0.5 10.5t1.5 10.5q1 6 2.5 11.5t2.5 11.5q0 2 1 4t1 4l74 279h-95l3 14
h181l-82 -319q-1 -6 -2 -13t-1 -15q-1 -5 -1 -9.5v-9.5q0 -16 7.5 -23.5t16.5 -9.5q3 -1 6.5 -1.5t6.5 -0.5q19 0 55.5 20.5t86.5 87.5q4 5 7.5 10t6.5 9t5.5 8.5t5.5 8.5q2 4 4.5 8.5t4.5 9.5l64 239h89v0z" />
    <glyph glyph-name=".notdef" 
d="M242 20h29q-1 -8 -1.5 -14.5t-0.5 -13.5v-9.5t1 -9.5q0 -5 0.5 -9.5t1.5 -9.5q3 -20 5.5 -34t2.5 -24v-6t-1 -6q-5 -34 -36 -64.5t-74 -42.5l-13 15q14 9 21.5 16t10.5 13q2 4 3 8.5t1 9.5v7.5t-1 7.5q-1 6 -1.5 12t-1.5 11q0 4 -0.5 8t-0.5 9q0 11 4 24.5t10 27.5
q4 9 8 17t8 15q7 14 14 24.5t11 17.5v0zM478 426l-97 -367q0 -1 -0.5 -2.5t-0.5 -3.5t-0.5 -3.5t-0.5 -2.5q-1 -3 -1 -5.5v-4.5q0 -7 3.5 -11t7.5 -5q3 -1 5.5 -1.5t3.5 -0.5q10 0 18 6.5t15 13.5q2 3 4 5.5t4 4.5q8 10 14.5 18.5t11.5 17.5q3 4 5.5 8t4.5 8q4 7 8 15l9 18
l14 -7q-43 -95 -81.5 -116t-64.5 -21q-31 0 -47.5 19t-16.5 47q0 12 2 22.5t5 20.5q1 5 2 9l2 8l4 17h-2q-26 -38 -61 -71.5t-72 -52.5q-18 -9 -35.5 -14t-34.5 -5q-37 0 -58.5 20.5t-21.5 70.5q0 5 0.5 10.5t1.5 10.5q1 6 2.5 11.5t2.5 11.5q0 2 1 4t1 4l74 279h-95l3 14
h181l-82 -319q-1 -6 -2 -13t-1 -15q-1 -5 -1 -9.5v-9.5q0 -16 7.5 -23.5t16.5 -9.5q3 -1 6.5 -1.5t6.5 -0.5q19 0 55.5 20.5t86.5 87.5q4 5 7.5 10t6.5 9t5.5 8.5t5.5 8.5q2 4 4.5 8.5t4.5 9.5l64 239h89v0z" />
    <glyph glyph-name="glyph1" horiz-adv-x="0" 
 />
    <glyph glyph-name="glyph2" horiz-adv-x="351" 
 />
    <glyph glyph-name="space" unicode=" " horiz-adv-x="351" 
 />
    <glyph glyph-name="exclam" unicode="!" horiz-adv-x="360" 
d="M70 46q0 24 16 39.5t39 15.5t38.5 -15.5t15.5 -39.5q0 -23 -15.5 -38t-38.5 -15q-24 0 -39.5 15.5t-15.5 37.5v0zM154 151h-20q31 119 43.5 213t20.5 161q9 70 23 107t50 37q4 0 8.5 -1t9.5 -2q11 -5 20 -16.5t9 -34.5q0 -11 -11 -47.5t-59 -146.5q-11 -26 -20.5 -47.5
t-18.5 -42.5q-6 -16 -12 -32.5t-12 -35.5q-7 -23 -15 -50.5t-16 -61.5v0z" />
    <glyph glyph-name="quotedbl" unicode="&#x22;" horiz-adv-x="395" 
d="M145 666l-28 -221h-39l-28 221h95v0zM322 666l-29 -221h-38l-29 221h96v0z" />
    <glyph glyph-name="numbersign" unicode="#" horiz-adv-x="896" 
d="M560 -59h-88l34 178h-187l-34 -178h-88l33 178h-174l17 90h175l36 190h-175l17 90h175l34 177h88l-34 -177h188l34 177h88l-34 -177h175l-17 -90h-175l-37 -190h175l-17 -90h-175l-34 -178v0zM523 209l36 190h-187l-36 -190h187v0z" />
    <glyph glyph-name="dollar" unicode="$" horiz-adv-x="574" 
d="M0 1l50 208h12q11 -77 46.5 -128t100.5 -67l67 269l-39 12q-8 3 -18.5 7t-21.5 11q-23 15 -42.5 43t-19.5 76q0 98 69 166t163 68h1.5h1.5h0.5h1.5l18 73h29l-19 -77q7 -1 13.5 -2t12.5 -2q10 -3 19.5 -6.5t22.5 -8.5q14 -6 24.5 -10t18.5 -4q6 1 11.5 3t10.5 8
q3 3 5.5 6.5t5.5 8.5h16l-36 -158h-13q-10 54 -37.5 94.5t-78.5 51.5l-62 -248l56 -16q39 -11 60.5 -31t31.5 -43q12 -24 14 -46t2 -31v-1.5v-0.5q0 -96 -69.5 -162t-152.5 -73q-5 -1 -9.5 -1h-9.5l-24 -1l-21 -87h-30l23 90q-27 4 -45 10t-34 14q-2 1 -3.5 2t-3.5 2
q-14 8 -24 13t-19 5q-16 0 -29.5 -10t-21.5 -27h-24v0zM238 10h12q74 0 124.5 51t50.5 118q0 3 -0.5 6t-0.5 5q-5 23 -25.5 43.5t-51.5 29.5l-43 12l-66 -265v0zM306 403l61 244q-5 1 -10 1.5t-10 0.5q-50 -1 -86.5 -33t-52.5 -71q-6 -12 -8.5 -24.5t-2.5 -23.5
q0 -44 25.5 -62t56.5 -26q3 -1 6.5 -1.5t7.5 -1.5l13 -3v0z" />
    <glyph glyph-name="percent" unicode="%" horiz-adv-x="828" 
d="M732 730l12 -10l-594 -731l-12 12l521 640l-2 7q-19 -15 -41.5 -28.5t-46.5 -23.5q-25 -10 -48.5 -16t-42.5 -6q-10 0 -21.5 1.5t-22.5 4.5l-20 6t-19 7l-4 -1q5 -8 8.5 -23t3.5 -37q0 -63 -54.5 -107.5t-125.5 -44.5q-44 0 -73.5 35t-29.5 89q0 67 44 110t97 53
q7 1 13.5 1.5t12.5 0.5q23 0 39.5 -6.5t31.5 -16.5q4 -3 7.5 -5.5t7.5 -5.5q7 -5 14.5 -10t14.5 -9q18 -12 37.5 -18.5t46.5 -6.5q17 0 34.5 3.5t34.5 10.5q39 14 76 39t67 52q10 9 18.5 17.5t15.5 16.5v0zM218 592l-37 -103q-4 -10 -5 -22t-1 -27q0 -19 16 -32.5t41 -13.5
q29 0 44.5 17t24.5 38q1 3 2.5 6.5t2.5 6.5l33 88q5 14 7.5 26.5t2.5 22.5q0 30 -17.5 43t-39.5 13q-31 0 -47.5 -18.5t-26.5 -44.5v0zM459 132q0 60 38 97t84 48q10 2 20 3.5t20 1.5q52 0 87.5 -32t35.5 -93q0 -10 -1.5 -20t-4.5 -20q-13 -46 -54 -84.5t-104 -38.5
q-67 0 -94 40.5t-27 97.5v0zM553 197l-32 -85q-2 -5 -3.5 -12t-2.5 -14t-1.5 -13.5t-0.5 -11.5q0 -4 1 -9.5t3 -11.5q4 -12 14 -22.5t29 -10.5q30 0 49 15.5t30 34.5q5 7 8 15t5 14l22 70q6 18 8.5 33t2.5 26q-1 32 -17.5 42.5t-38.5 10.5q-24 0 -38.5 -12.5t-23.5 -27.5
q-5 -9 -8.5 -17t-5.5 -14v0z" />
    <glyph glyph-name="ampersand" unicode="&#x26;" horiz-adv-x="756" 
d="M343 360q-65 0 -100.5 -26.5t-52.5 -58.5q-12 -21 -18 -41t-10 -32l-2 -6q-2 -7 -3.5 -18.5t-2.5 -23.5q-1 -11 -1.5 -22t-0.5 -18q0 -39 35 -71.5t105 -32.5q88 0 134.5 46t65.5 101q8 22 12 43.5t6 40.5l-56 1q-59 1 -90.5 -8.5t-45.5 -21.5q-10 -8 -13 -15.5t-3 -11.5
q0 -1 1.5 -2.5t2.5 -1.5h3.5h3.5t3.5 0.5t3.5 1.5q3 1 6.5 2t6.5 2t6.5 1.5t6.5 0.5t6 -0.5t6 -0.5q12 -2 21.5 -9.5t9.5 -23.5q0 -28 -20.5 -50.5t-49.5 -22.5q-21 0 -32.5 9t-15.5 20q-1 3 -1.5 6t-0.5 6q0 17 7.5 41t22.5 50q26 44 74.5 81t121.5 37h2.5h2.5
q17 -1 36 -1.5t40 -0.5h12h12q56 2 103 13.5t47 44.5q0 2 -0.5 3t-2.5 1q-3 0 -6.5 -0.5t-7.5 -2.5q-3 -1 -6.5 -2.5t-6.5 -1.5q-3 -1 -6.5 -1.5t-6.5 -0.5q-4 0 -8 0.5t-9 1.5q-10 3 -18.5 10.5t-8.5 21.5v4t1 4q3 24 23 44.5t46 20.5q20 0 32 -9t17 -20q1 -3 1.5 -6
t0.5 -6q0 -17 -5.5 -38t-16.5 -43q-25 -48 -80 -88t-142 -39q-1 -12 -3.5 -24.5t-6.5 -25.5q-20 -75 -80 -136.5t-173 -61.5q-19 0 -49.5 1.5t-63.5 7.5q-51 11 -93.5 42t-42.5 98q0 94 67.5 152t215.5 78l1 4l-10.5 3t-6.5 2q-1 0 -1 0.5t-1 0.5t-2 0.5t-3 0.5
q-8 2 -17.5 4.5t-19.5 6.5q-22 8 -40.5 23.5t-18.5 44.5q0 17 4 36t12 38q21 50 73.5 91.5t148.5 41.5q77 0 108 -33t31 -86q0 -26 -15 -41t-33 -22q-7 -2 -14.5 -3.5t-13.5 -1.5q-16 0 -26 6t-15 12q-3 4 -4 7.5t-1 6.5q0 22 9.5 36.5t21.5 25.5q6 5 11 9.5t10 9.5
q3 3 5.5 6.5t3.5 7.5q2 4 2 7.5t-2 7.5q-3 10 -17.5 16.5t-31.5 8.5q-6 1 -11.5 1.5t-10.5 0.5q-43 0 -67.5 -17t-37.5 -37q-8 -12 -12 -23.5t-6 -19.5l-17 -67q-2 -10 -4 -19.5t-2 -20.5q0 -25 19.5 -45t79.5 -20h36l-5 -22h-78v0z" />
    <glyph glyph-name="quotesingle" unicode="'" horiz-adv-x="218" 
d="M157 666l-29 -221h-38l-29 221h96v0z" />
    <glyph glyph-name="parenleft" unicode="(" horiz-adv-x="387" 
d="M139 -205l-21 -12q-16 27 -29 53t-23 51q-20 49 -29 97.5t-9 103.5q0 26 12 114.5t82 200.5q37 61 75.5 110.5t84.5 96.5q13 14 27 27.5t29 27.5l18 -8q-58 -68 -101 -145.5t-73 -157.5q-39 -103 -56.5 -201.5t-17.5 -176.5q0 -57 5.5 -92.5t11.5 -55.5q4 -13 8 -20.5
t6 -11.5v-1z" />
    <glyph glyph-name="parenright" unicode=")" horiz-adv-x="387" 
d="M248 653l21 12q28 -43 47.5 -90.5t29.5 -95.5q7 -31 10 -60.5t3 -58.5q0 -37 -6 -77t-18 -80q-11 -41 -28.5 -81t-40.5 -77q-37 -60 -76 -109.5t-85 -96.5q-13 -14 -27 -27.5t-29 -27.5l-18 7q72 79 126 189.5t85 228.5q19 69 28.5 136t9.5 128q0 58 -6 94t-13 57
q-4 10 -7 17t-6 12v0z" />
    <glyph glyph-name="asterisk" unicode="*" horiz-adv-x="557" 
d="M367 466l-6 -19q38 -26 61 -38.5t35 -22.5q5 -4 8 -8.5t5 -9.5q2 -4 2 -7.5v-6.5q0 -4 -0.5 -7t-1.5 -6q0 -1 -0.5 -2l-1.5 -3q-3 -8 -9.5 -14.5t-15.5 -6.5q-25 0 -39.5 14t-27.5 36q-7 14 -15.5 29.5t-19.5 32.5l-19 -4q-3 -31 -4 -50t-1 -31v-10t1 -8v-5.5v-4.5v-3.5
t-1 -3.5q-2 -12 -11 -21.5t-21 -9.5h-7.5t-7.5 1q-13 2 -23.5 9t-10.5 24q0 5 1 9.5t2 9.5q5 13 19 33t36 68l-13 14q-51 -23 -73.5 -36.5t-38.5 -16.5q-3 0 -5.5 -0.5t-5.5 -0.5q-10 0 -19.5 8.5t-12.5 21.5q0 1 -0.5 2.5t-0.5 2.5v2.5v2.5v2.5v2.5t0.5 2.5t0.5 2.5
t0.5 1.5t0.5 1.5q4 10 12.5 18.5t18.5 10.5q2 1 3.5 1h2.5q3 0 6.5 -0.5t9.5 -0.5q5 -1 14 -1.5t22 -0.5q11 0 25 0.5t33 1.5l5 19q-5 3 -10 6.5t-10 6.5q-8 5 -15 9t-15 9q-24 14 -41.5 31t-17.5 44v2t1 3q2 7 8.5 13t13.5 7q2 1 3 1h2q25 0 39 -13.5t26 -34.5
q8 -14 16.5 -30.5t20.5 -33.5l19 4q4 28 5 45.5t1 27.5q0 7 -0.5 12t-1.5 8q0 2 -0.5 3.5t-0.5 3.5v2.5v3.5v4.5t1 5.5q2 11 11.5 19.5t21.5 11.5q1 0 2.5 0.5t2.5 0.5h2.5h2.5h4.5t4.5 -1q11 -3 20.5 -12t9.5 -22q0 -5 -0.5 -9t-2.5 -8q-5 -14 -19 -34.5t-37 -68.5l14 -14
q54 26 77.5 39.5t41.5 14.5h2h2q13 0 21 -9.5t11 -20.5q0 -1 0.5 -2.5t0.5 -2.5v-3v-3v-4.5t-1 -4.5q-3 -13 -12.5 -21.5t-20.5 -10.5h-2h-2q-1 -1 -1.5 -1h-1.5h-1.5h-1.5q-2 0 -4.5 0.5t-5.5 1.5q-5 0 -12.5 0.5t-20.5 0.5h-25.5t-36.5 -2v0z" />
    <glyph glyph-name="plus" unicode="+" horiz-adv-x="698" 
d="M56 337h279v279h42v-279h279v-42h-279v-278h-42v278h-279v42v0z" />
    <glyph glyph-name="comma" unicode="," horiz-adv-x="407" 
d="M80 -171l-10 15q10 7 22.5 17.5t26.5 22.5l18 18t16 18q13 15 22 29.5t10 25.5v3.5v3.5v2v2q-1 4 -3 6t-4 3t-4 1h-3q-3 0 -4.5 -0.5l-1.5 -0.5v0l-1 -1l-2.5 -0.5t-9.5 -0.5q-3 0 -7.5 1t-9.5 3q-9 4 -17 15.5t-8 32.5q0 29 17 42.5t40 13.5q4 0 8.5 -0.5t8.5 -1.5
q16 -4 28.5 -20t12.5 -53q0 -13 -3.5 -26t-9.5 -27q-16 -36 -46.5 -69.5t-63.5 -58.5q-6 -4 -11.5 -8t-10.5 -7v-1z" />
    <glyph glyph-name="hyphen" unicode="-" horiz-adv-x="364" 
d="M70 246l11 34h213l-10 -34h-214v0z" />
    <glyph glyph-name="period" unicode="." horiz-adv-x="361" 
d="M70 46q0 23 15.5 39t39.5 16q23 0 38.5 -15.5t15.5 -39.5q0 -22 -15.5 -37.5t-38.5 -15.5q-24 0 -39.5 15.5t-15.5 37.5v0z" />
    <glyph glyph-name="slash" unicode="/" horiz-adv-x="473" 
d="M-88 -252l-25 17l634 921l28 -19l-637 -919v0z" />
    <glyph glyph-name="zero" unicode="0" horiz-adv-x="559" 
d="M57 254q1 14 2.5 28t3.5 28q22 135 99 247t188 112q86 0 123 -62.5t43 -137.5q0 -9 0.5 -17.5t0.5 -16.5q0 -36 -6.5 -77t-19.5 -84q-32 -106 -100 -193.5t-164 -87.5q-67 0 -103 40t-51 89q-10 29 -13.5 56.5t-3.5 46.5v7.5v7.5q0 3 0.5 6.5t0.5 7.5v0zM208 497
l-63 -276q-5 -22 -9.5 -46.5t-4.5 -50.5q0 -51 20.5 -76t45.5 -33q8 -3 15.5 -4t14.5 -1q12 0 24 3t25 10q25 15 49 50.5t40 103.5l69 286q1 2 1.5 4.5t0.5 4.5q2 9 4 19t3 21q2 12 3 23t1 20q0 49 -25.5 70t-56.5 25q-4 0 -9 0.5t-9 0.5q-52 0 -82 -35t-45 -78
q-4 -10 -7 -20.5t-5 -20.5v0z" />
    <glyph glyph-name="one" unicode="1" horiz-adv-x="398" 
d="M82 18l149 595q1 2 1 3.5v2.5q0 7 -5 9t-12 2h-0.5h-1.5h-9.5h-8.5h-4.5h-4.5q-4 0 -10 -0.5t-12 -0.5h-0.5h-0.5q-7 0 -13 -0.5t-9 -0.5l6 24q20 1 40.5 2.5t41.5 2.5t42 2.5t42 2.5l43 7q-1 -4 -5 -17.5t-8 -29.5q-5 -18 -9.5 -34l-4.5 -16l-137 -554h77l-5 -18h-264
l5 18h77v0z" />
    <glyph glyph-name="two" unicode="2" horiz-adv-x="586" 
d="M449 196h22l-57 -196h-414l16 63l213 162q15 11 42 34.5t57 57.5q42 48 77 112.5t35 138.5q0 7 -2 16t-6 18q-9 19 -30 34t-61 15q-37 0 -64.5 -18t-40.5 -40q-5 -8 -7.5 -16.5t-2.5 -15.5q0 -13 2.5 -16.5t6.5 -5.5q4 -1 8 -3t8 -10q1 -2 2.5 -4.5t2.5 -5.5
q2 -6 3 -12.5t1 -13.5q0 -30 -21.5 -47t-49.5 -17q-4 0 -9 0.5t-10 2.5q-16 4 -29 17t-13 37q0 11 3 23t8 24q23 52 87 95.5t143 43.5q91 0 133 -51t42 -122q0 -78 -57.5 -129.5t-125.5 -95.5q-5 -3 -10.5 -6.5t-10.5 -6.5l-259 -166h276q35 0 50 14.5t25 42.5q4 10 8 21.5
t9 25.5v0z" />
    <glyph glyph-name="three" unicode="3" horiz-adv-x="549" 
d="M317 392q37 12 53 38t23 57l17 67q2 8 3 14.5t1 13.5q0 32 -21.5 50.5t-57.5 18.5q-28 0 -51.5 -9t-34.5 -20q-3 -3 -5 -6.5t-2 -6.5q0 -9 4 -15.5t9 -12.5q1 0 1.5 -0.5l0.5 -0.5q6 -7 10.5 -14t4.5 -18q0 -7 -2 -15.5t-8 -19.5q-10 -18 -24.5 -25t-29.5 -7
q-29 0 -43.5 16.5t-14.5 35.5q0 11 4 22.5t11 23.5q21 34 68 62t118 28q66 0 102 -20.5t50 -45.5q6 -10 8.5 -20t2.5 -18q0 -16 -3.5 -38.5t-15.5 -46.5q-15 -29 -48 -55.5t-94 -40.5q-3 -1 -5.5 -1.5t-5.5 -1.5v0v0l-8 -2t-11 -3l-1 -4l18 -4t18 -5q39 -14 71 -44t32 -84
q0 -20 -5 -43.5t-16 -48.5q-26 -57 -88.5 -103.5t-172.5 -46.5q-76 0 -124 28.5t-48 76.5q0 8 1 16.5t2 17.5q6 29 22.5 53.5t48.5 24.5q22 0 33.5 -8t16.5 -17q2 -4 3 -7l2 -6q0 -2 0.5 -4t0.5 -4q1 -3 1 -5v-4q0 -3 -0.5 -6t-1.5 -6q-3 -11 -9 -19t-12 -14q-6 -5 -11 -9
t-8 -6q-2 -1 -3.5 -2t-3.5 -2q-7 -5 -13 -10t-6 -12q0 -5 0.5 -10.5t2.5 -11.5q6 -14 24.5 -25.5t63.5 -11.5q50 0 81.5 24t49.5 53q12 20 18.5 38t8.5 29l22 90q5 19 5.5 33.5t0.5 25.5v3.5v2.5q0 30 -22 40.5t-51 10.5q-6 0 -12.5 -1t-12.5 -2q-3 0 -5.5 -1t-5.5 -1
q-3 -1 -7 -1.5t-7 -1.5l-14 -2t-15 -1h-3t-4 1q-3 0 -6 2.5t-4 7.5q-1 2 -1 4.5t1 4.5q1 10 6.5 15.5t12.5 7.5q3 2 6 2.5t6 0.5q6 0 12 -1t12 -3q8 -2 20 -3.5t27 -1.5q5 0 9.5 0.5t9.5 1.5q4 0 9 1.5t9 2.5v0z" />
    <glyph glyph-name="four" unicode="4" horiz-adv-x="505" 
d="M192 18l42 169h-234l6 26l393 456h53l-111 -442h103l-10 -40h-102l-42 -169h77l-5 -18h-259l5 18h84v0zM243 227l82 325l-285 -325h203v0z" />
    <glyph glyph-name="five" unicode="5" horiz-adv-x="548" 
d="M213 562l-56 -173q45 32 83.5 40t59.5 8q77 0 128.5 -38.5t51.5 -112.5q0 -16 -2 -32.5t-6 -33.5q-20 -86 -89.5 -156.5t-186.5 -70.5h-1h-1q-8 0 -29 1t-45 7q-29 8 -53.5 28.5t-24.5 61.5v1.5v1.5q1 41 19.5 75.5t58.5 34.5q31 0 44 -16.5t15 -36.5v-4v-4
q0 -16 -8 -26.5t-18 -17.5q-5 -3 -9.5 -5.5t-8.5 -4.5q-2 -1 -5 -3t-6 -3q-6 -4 -11 -8t-5 -10v-1.5v-1.5q0 -4 0.5 -9.5t2.5 -12.5q4 -11 19.5 -20t50.5 -9q56 0 85.5 29.5t44.5 64.5q8 21 13 40t9 33l27 106q1 4 2 12t2 17q0 8 0.5 16t0.5 12q0 29 -23 49t-71 20
q-25 0 -57 -11.5t-76 -52.5l-11 2l100 321q51 -25 92 -29t64 -4q31 0 67 6t85 27l6 -13q-23 -31 -62 -51.5t-81 -31.5q-31 -9 -61.5 -13t-53.5 -4q-6 0 -12.5 0.5t-13.5 0.5q-6 1 -11.5 1.5t-11.5 1.5q-5 0 -10.5 1t-10.5 1v0z" />
    <glyph glyph-name="six" unicode="6" horiz-adv-x="554" 
d="M210 455l-32 -120q18 24 40 40.5t45 25.5q19 8 38 11.5t35 3.5q12 0 26 -2t28 -7q33 -12 60.5 -40t27.5 -80q0 -115 -80.5 -204.5t-190.5 -89.5q-7 0 -13.5 0.5t-13.5 1.5q-46 5 -86.5 36t-51.5 99q-1 5 -1.5 9.5t-0.5 9.5q-1 5 -1 9.5v9.5v10.5t1 11.5q0 5 0.5 10.5
t1.5 10.5q4 38 14.5 84.5t28.5 95.5q38 104 112.5 191t195.5 87q74 0 106 -23t39 -50q1 -2 1.5 -4t0.5 -4t0.5 -4t0.5 -4v-4v-4v-7.5t-1 -7.5q-1 -5 -2.5 -10t-3.5 -11q-7 -17 -21.5 -32t-37.5 -15q-25 0 -39 9.5t-19 21.5q-2 3 -2.5 6t-0.5 6q0 7 1.5 18.5t8.5 23.5
q3 5 7.5 9.5t10.5 9.5q1 1 2.5 2t2.5 2q5 5 8.5 10t3.5 12q0 3 -1 6t-3 7q-6 7 -21 13t-45 6q-74 0 -109.5 -43.5t-52.5 -95.5q-5 -15 -9 -29.5t-8 -27.5v0zM159 258l-28 -114q-3 -12 -4.5 -23t-1.5 -21q1 -46 28 -67.5t64 -21.5q42 0 68 24t40 54q9 17 14 34t8 28l25 99
q1 3 1.5 7t1.5 9t2 11l2 12q1 11 2 21.5t1 16.5q0 4 -0.5 7.5t-1.5 7.5q-4 18 -20 34t-47 16h-7.5t-6.5 -1q-46 -6 -86.5 -43.5t-53.5 -89.5v0z" />
    <glyph glyph-name="seven" unicode="7" horiz-adv-x="507" 
d="M105 493h-21l67 168h361q11 0 9 -8t-14 -33q-6 -13 -17.5 -32.5t-23.5 -40.5q-2 -2 -3.5 -4.5t-2.5 -4.5q-12 -20 -23.5 -38t-19.5 -30q-29 -45 -50.5 -78.5t-38.5 -64.5q-8 -14 -15.5 -28.5t-15.5 -30.5q-22 -46 -46.5 -107.5t-60.5 -160.5h-109q25 69 58 126.5
t68 106.5q22 29 43 55t40 49q20 25 42 52t44 57q19 26 38.5 55.5t37.5 62.5h-263q-19 0 -34 -7.5t-30 -28.5q-5 -7 -10 -15.5t-10 -19.5v0z" />
    <glyph glyph-name="eight" unicode="8" 
d="M213 347l-44 34q-10 8 -17.5 17.5t-12.5 19.5q-8 15 -11 28.5t-3 22.5q0 14 3 29t8 31q20 52 73 96t139 44q70 0 111 -35.5t41 -97.5q0 -46 -38 -79.5t-83 -53.5q-11 -4 -22.5 -8t-21.5 -7l41 -33q17 -14 30 -28t22 -28q9 -15 13.5 -29t4.5 -28q0 -10 -1 -20.5t-3 -21.5
q-16 -78 -81.5 -142.5t-162.5 -64.5q-80 0 -120.5 24t-54.5 53q-5 10 -7 20t-2 19q0 85 50.5 135.5t110.5 83.5q10 5 19.5 9.5t18.5 9.5v0zM327 261l-93 71q-37 -20 -62.5 -44.5t-42.5 -49.5q-26 -41 -33.5 -78.5t-7.5 -57.5v-5.5t1 -4.5q3 -31 30 -56.5t82 -25.5
q65 0 112.5 49t47.5 113q0 26 -5 48t-29 41v0zM241 459l74 -56q35 14 57.5 34t34.5 42q15 26 19.5 49t4.5 36q0 36 -22.5 61.5t-67.5 25.5q-55 0 -88 -24.5t-47 -53.5q-5 -13 -8 -24.5t-3 -21.5q0 -17 8.5 -30t18.5 -23l10 -8t9 -7v0z" />
    <glyph glyph-name="nine" unicode="9" horiz-adv-x="554" 
d="M344 206l32 120q-18 -24 -40 -40.5t-45 -25.5q-19 -8 -38 -11.5t-35 -3.5q-10 0 -28.5 2.5t-37.5 10.5q-29 11 -52.5 38t-23.5 78q0 116 81 205.5t190 89.5q7 0 13.5 -0.5t13.5 -1.5q46 -6 87 -37t51 -99q2 -10 2.5 -19.5t0.5 -18.5q0 -11 -0.5 -22t-2.5 -22
q-4 -38 -14.5 -84t-27.5 -94q-38 -104 -112.5 -191t-196.5 -87q-77 0 -108.5 24t-37.5 53q-1 1 -1 1.5v1.5q0 2 -0.5 4t-0.5 4v4v4v7.5t1 7.5q1 6 3 13t6 15q6 14 19.5 26.5t36.5 12.5q29 0 43.5 -11.5t17.5 -25.5v-2.5v-2.5q0 -7 -1.5 -18.5t-8.5 -23.5q-3 -5 -7.5 -9.5
t-10.5 -9.5q-1 -1 -2.5 -2t-2.5 -2q-5 -4 -8.5 -9.5t-3.5 -13.5q0 -3 1.5 -6.5t4.5 -7.5q6 -6 21 -11.5t43 -5.5q89 0 124 61t55 135v0zM395 402l28 115q3 13 4.5 24t1.5 21q-1 40 -20.5 59t-42.5 25q-8 2 -15 3t-14 1q-41 0 -66 -22.5t-39 -49.5q-12 -22 -17.5 -42
t-7.5 -27l-25 -98q-1 -3 -1.5 -7t-1.5 -9t-2 -11t-2 -13q-1 -11 -2 -21.5t-1 -16.5q0 -31 21.5 -48t47.5 -17q13 0 28.5 4t31.5 13q30 15 57 44.5t37 72.5v0z" />
    <glyph glyph-name="colon" unicode=":" horiz-adv-x="364" 
d="M70 46q0 24 16 39.5t39 15.5t38.5 -15.5t15.5 -39.5q0 -23 -15.5 -38t-38.5 -15q-24 0 -39.5 15.5t-15.5 37.5v0zM157 391q0 23 15.5 38.5t38.5 15.5q24 0 39.5 -15.5t15.5 -38.5t-15.5 -39t-39.5 -16q-22 0 -38 15.5t-16 39.5v0z" />
    <glyph glyph-name="semicolon" unicode=";" horiz-adv-x="406" 
d="M81 -171l-11 15q8 6 15.5 11.5t14.5 11.5q45 35 65.5 66.5t20.5 41.5v4t-1 5q0 4 -3 8t-10 4h-2t-1 -1h-2h-2t-3 -0.5t-3 -0.5q-2 -1 -3.5 -1h-3.5h-2.5h-2.5q-14 3 -25.5 16t-11.5 36t15 39.5t43 16.5t43 -20t15 -55q0 -9 -1.5 -18.5t-5.5 -18.5q-13 -41 -47.5 -79.5
t-72.5 -67.5q-5 -3 -9.5 -6t-8.5 -6v-1zM199 391q0 4 0.5 7.5t1.5 7.5q5 15 18.5 27t34.5 12q23 0 38.5 -15.5t15.5 -38.5q0 -24 -15.5 -39.5t-38.5 -15.5q-21 0 -35 13t-18 28q-1 4 -1.5 7.5t-0.5 6.5v0z" />
    <glyph glyph-name="less" unicode="&#x3c;" horiz-adv-x="532" 
d="M14 329l461 266l29 -54l-367 -212l367 -212l-29 -54l-461 266v0z" />
    <glyph glyph-name="equal" unicode="=" horiz-adv-x="698" 
d="M56 267h600v-42h-600v42v0zM56 407h600v-42h-600v42v0z" />
    <glyph glyph-name="greater" unicode="&#x3e;" horiz-adv-x="532" 
d="M518 329l-461 -266l-29 54l367 212l-367 212l29 54l461 -266v0z" />
    <glyph glyph-name="question" unicode="?" horiz-adv-x="497" 
d="M98 46q0 23 15.5 39t39.5 16q23 0 38.5 -15.5t15.5 -39.5q0 -22 -15.5 -37.5t-38.5 -15.5q-24 0 -39.5 15.5t-15.5 37.5v0zM193 163h-24q18 77 42.5 123t55.5 87l14 18t15 19q6 7 12.5 15.5t14.5 17.5q16 21 30 49t14 63v3t1 4v6v7q0 6 -0.5 13t-2.5 14q-5 18 -20 33
t-49 15q-43 0 -77 -21t-49 -47q-4 -7 -6.5 -15t-2.5 -15q0 -12 6.5 -15.5t15.5 -2.5h4.5h4.5h4.5h4.5q13 0 20.5 -6t10.5 -13q2 -4 3 -8t1 -7q0 -6 -1.5 -12.5t-4.5 -12.5q-8 -16 -25 -29.5t-42 -13.5q-17 0 -30 19t-13 47q0 14 4.5 32.5t14.5 37.5q20 38 60.5 69.5
t103.5 31.5q77 0 114.5 -31.5t37.5 -78.5q0 -68 -37 -117t-82 -87q-4 -3 -7.5 -6.5t-7.5 -6.5q-43 -34 -79 -74t-49 -105v0z" />
    <glyph glyph-name="at" unicode="@" horiz-adv-x="939" 
d="M736 568l-83 -275q-11 -37 -15 -56t-4 -28q0 -25 8.5 -38.5t18.5 -19.5q6 -4 11.5 -5t9.5 -1q12 0 23.5 2.5t24.5 8.5q54 23 100 92t46 166q0 140 -103.5 248t-294.5 108q-182 0 -291.5 -130.5t-109.5 -287.5q0 -160 111.5 -290.5t292.5 -130.5h0.5h0.5q23 0 81 6t123 40
q16 9 32.5 20t32.5 25l22 -28q-88 -64 -159.5 -81t-129.5 -17q-204 0 -330 141t-126 316v6v6q4 165 124 302.5t324 137.5q176 0 305.5 -104t129.5 -287v-6v-5q-3 -110 -66 -201.5t-173 -91.5q-36 0 -60 11.5t-38 25.5q-7 7 -12 14t-8 12q-31 -25 -64.5 -39t-76.5 -14
q-79 0 -120 56.5t-41 132.5q0 110 76 193.5t191 83.5q17 0 41.5 -6t51.5 -30l13 -13t13 -16l15 47h83v0zM546 218l68 240q-7 42 -30 65t-49 29q-5 1 -9.5 1.5t-8.5 0.5q-10 0 -20 -2.5t-20 -6.5q-48 -21 -88 -86t-40 -158q0 -61 15.5 -103t69.5 -42q34 0 59.5 15.5
t41.5 33.5q3 3 6 6.5t5 6.5v0z" />
    <glyph glyph-name="A" unicode="A" horiz-adv-x="565" 
d="M338 238h-199l-62 -115q-9 -17 -13 -30t-4 -23q0 -23 13.5 -37.5t37.5 -14.5h8l-4 -18h-171l5 18q9 2 17 6.5t16 11.5q14 10 27 25t25 31q7 10 13.5 20t11.5 19l299 538h9l104 -651h73l-5 -18h-245l5 18h71l-32 220v0zM335 256l-43 260l-142 -260h185v0z" />
    <glyph glyph-name="B" unicode="B" horiz-adv-x="662" 
d="M69 18l156 625h-92l4 18h313q82 0 121.5 -24.5t52.5 -53.5q6 -12 8 -23.5t2 -21.5q0 -11 -1.5 -22t-5.5 -23q-13 -46 -57.5 -86t-126.5 -53v-7q12 -1 25.5 -2.5t27.5 -5.5q39 -10 71 -38.5t32 -89.5q0 -17 -5.5 -42t-21.5 -53q-26 -43 -86.5 -79.5t-175.5 -36.5h-338
l5 18h92v0zM178 18h134q12 0 29 1t35 8q23 9 44.5 30.5t32.5 66.5l22 89q3 14 4.5 25t1.5 21q0 42 -22 58t-48 20q-11 1 -22 1.5t-20 0.5h-109l-82 -321v0zM264 358h111q51 0 78.5 19.5t40.5 43.5q3 6 5.5 12.5t3.5 12.5l17 69q2 7 3 20t2 27v10v10q0 30 -17.5 42.5
t-39.5 15.5q-11 2 -22 2.5t-19 0.5h-93l-70 -285v0z" />
    <glyph glyph-name="C" unicode="C" horiz-adv-x="606" 
d="M503 193l18 1l-51 -194h-18q-1 8 -4.5 12.5t-7.5 7.5q-3 2 -5.5 3t-4.5 1q-10 0 -23 -2t-32 -10q-3 -1 -5.5 -2t-5.5 -2q-16 -6 -36.5 -10.5t-50.5 -4.5h-4h-5q-79 3 -145.5 56t-66.5 165q0 12 0.5 24.5t1.5 24.5q14 152 107 279t233 127q33 0 51 -6t29 -13q3 -3 6 -5
l6 -4q7 -5 15 -8t20 -3q3 0 6.5 0.5t6.5 1.5q10 4 19.5 11.5t15.5 17.5h19l-43 -190h-17q2 82 -37 131t-92 49q-18 0 -41 -5.5t-47 -22.5q-29 -21 -56 -63.5t-45 -118.5l-54 -228q-1 -6 -2.5 -11.5t-2.5 -11.5q-2 -10 -3 -20t-1 -22q0 -59 21.5 -87.5t46.5 -39.5
q18 -7 34 -9t25 -2q70 0 129 41t96 142v0z" />
    <glyph glyph-name="D" unicode="D" horiz-adv-x="734" 
d="M225 643h-80v18h265q20 0 56.5 -3t75.5 -18q56 -22 103 -80t47 -178q0 -9 -0.5 -18t-1.5 -19q-13 -129 -117.5 -237t-295.5 -108h-305l5 18h92l156 625v0zM176 18h101q136 0 203 89.5t90 196.5q9 43 13 84.5t4 77.5v0v1q0 8 -1.5 33t-11.5 53q-13 34 -42.5 62t-88.5 28
h-109l-158 -625v0z" />
    <glyph glyph-name="E" unicode="E" horiz-adv-x="635" 
d="M532 207h19l-51 -207h-528l5 18h92l156 625h-92l4 18h484l-45 -181l-19 1q1 4 1.5 8t0.5 8v7v8q0 53 -30.5 92t-89.5 39h-105l-68 -272h84q60 0 93.5 34.5t45.5 75.5l16 -1l-62 -250h-17v42q0 30 -14 46.5t-31 23.5q-16 8 -29.5 9t-14.5 1h-75l-83 -334h106
q68 0 131.5 37t115.5 152v0z" />
    <glyph glyph-name="F" unicode="F" horiz-adv-x="628" 
d="M69 18l156 625h-92l4 18h491l-45 -181l-19 1q2 8 2 15.5v14.5q0 5 -0.5 9.5t-0.5 9.5q-5 43 -36.5 78t-107.5 35h-87l-69 -279h78q60 0 93.5 34.5t45.5 75.5l16 -1l-62 -250h-17v42q0 30 -14 46.5t-31 23.5q-16 8 -29.5 9t-14.5 1h-69l-82 -327h106l-5 -18h-308l5 18h92
v0z" />
    <glyph glyph-name="G" unicode="G" horiz-adv-x="681" 
d="M430 273h237l-5 -19h-59l-10 -38q-25 -95 -116 -159t-207 -64q-107 0 -160.5 72t-53.5 166v2.5v3.5q3 161 123.5 295.5t264.5 136.5h1.5h1.5q26 0 46.5 -5t37.5 -10q16 -6 29.5 -11t23.5 -5q6 0 12.5 1t12.5 5q6 3 12 9t12 16h24l-52 -214h-22q2 12 3.5 26t1.5 28v8t-1 7
q-3 48 -29.5 87.5t-97.5 39.5q-110 0 -174 -105.5t-91 -231.5q-11 -53 -16.5 -104.5t-5.5 -95.5q0 -5 3 -19.5t13 -31.5q11 -20 34 -36.5t63 -16.5q63 0 99.5 29.5t55.5 64.5q13 23 19.5 44.5t9.5 34.5l18 71h-63l5 19v0z" />
    <glyph glyph-name="H" unicode="H" horiz-adv-x="764" 
d="M268 379h266l66 264h-92l4 18h294l-4 -18h-93l-155 -625h92l-5 -18h-294l5 18h92l86 343h-267l-85 -343h92l-4 -18h-294l4 18h93l155 625h-92l5 18h294l-5 -18h-92l-66 -264v0z" />
    <glyph glyph-name="I" unicode="I" horiz-adv-x="389" 
d="M224 643h-92l5 18h294l-4 -18h-93l-156 -625h92l-4 -18h-294l4 18h93l155 625v0z" />
    <glyph glyph-name="J" unicode="J" horiz-adv-x="406" 
d="M198 661h250l-5 -18h-54l-125 -477q-3 -11 -10 -34.5t-22 -48.5q-20 -34 -56.5 -62t-97.5 -28q-63 0 -91 30.5t-28 70.5q0 38 22 56t50 18q29 0 44 -19.5t15 -43.5q0 -13 -5 -22t-10 -15q-3 -2 -5 -4t-4 -3q-8 -5 -15 -7.5t-12 -4.5q-4 -1 -6.5 -2t-3.5 -3t-1.5 -4.5
t0.5 -5.5q0 -1 0.5 -2t0.5 -2t0.5 -1.5t0.5 -1.5q3 -6 10.5 -12t19.5 -6q22 0 36.5 13.5t23.5 30.5q6 11 9.5 21.5l5.5 16.5l145 552h-87l5 18v0z" />
    <glyph glyph-name="K" unicode="K" horiz-adv-x="672" 
d="M237 316l282 230q6 5 11.5 9t10.5 9q9 9 15.5 18t6.5 18q0 29 -22.5 35.5t-52.5 7.5l5 18h235l-5 -18q-17 0 -32 -4t-30 -10q-38 -19 -82 -58t-115 -96l-52 -42l153 -415h57l-4 -18h-252l4 18h72l-118 342l-96 -78l-65 -264h70l-5 -18h-256l4 18h77l156 625h-77l5 18h256
l-5 -18h-70l-81 -327v0z" />
    <glyph glyph-name="L" unicode="L" horiz-adv-x="577" 
d="M224 643h-92l5 18h294l-5 -18h-92l-156 -625h118q68 0 131.5 37t115.5 152h20l-52 -207h-539l4 18h93l155 625v0z" />
    <glyph glyph-name="M" unicode="M" horiz-adv-x="845" 
d="M368 131l316 530h203l-4 -18h-92l-156 -625h92l-4 -18h-294l4 18h93l146 589l-368 -615h-18l-64 609l-114 -470q0 -2 -1 -4.5t-1 -5.5q-2 -7 -3 -14.5t-1 -16.5v-6t1 -6q2 -22 17 -40t54 -20l-5 -18h-197l4 18q11 2 24 6.5t27 13.5q19 13 35.5 36t26.5 62l101 398
q5 18 5.5 29t0.5 19v0.5v0.5q0 4 -0.5 12t-2.5 16q-4 12 -13.5 22t-30.5 10h-41l4 18h209l47 -530v0z" />
    <glyph glyph-name="N" unicode="N" horiz-adv-x="655" 
d="M65 104l103 416q2 6 3 12t3 13q1 6 1.5 12t0.5 12q0 23 -13.5 42.5t-53.5 31.5l4 18h152l230 -500l97 396q2 8 3 16t1 15q0 28 -14.5 42t-37.5 13h-2h-2l4 18h167l-4 -18q-37 -2 -60 -26.5t-32 -59.5l-142 -565h-11l-262 565l-113 -453q-1 -4 -1.5 -9.5t-0.5 -11.5v-6.5
t1 -6.5q3 -19 16 -35t42 -17l-5 -18h-167l5 18q33 1 56 25t32 61v0z" />
    <glyph glyph-name="O" unicode="O" horiz-adv-x="696" 
d="M56 245q-1 7 -1 13.5v13.5q0 18 1.5 36.5t5.5 37.5q21 121 108 222t238 101q115 0 174.5 -69.5t69.5 -152.5q1 -8 1.5 -16.5t0.5 -17.5q0 -31 -5.5 -66t-16.5 -70q-33 -107 -116 -195.5t-214 -88.5q-115 0 -177 73t-69 179v0zM207 449l-48 -194q-3 -14 -5 -30t-3 -32
q-1 -17 -1 -33v-30q0 -61 44.5 -91.5t104.5 -30.5q91 0 135 67.5t63 152.5l43 192q4 17 5.5 43t1.5 54v6v6q0 59 -36.5 88t-80.5 34q-4 0 -9 0.5t-10 0.5q-64 0 -120.5 -46.5t-83.5 -156.5v0z" />
    <glyph glyph-name="P" unicode="P" horiz-adv-x="648" 
d="M239 643h-93l5 18h294q84 0 147 -30t63 -110q0 -15 -2.5 -44t-18.5 -60q-21 -44 -78.5 -80.5t-178.5 -36.5h-115l-70 -282h93l-5 -18h-294l4 18h93l156 625v0zM267 318h122q51 0 76.5 20t37.5 44q4 8 6.5 16.5t4.5 15.5l25 101q3 12 4.5 22.5t1.5 19.5q-1 37 -18 55
t-37 25q-9 3 -18 4.5t-16 1.5h-108l-81 -325v0z" />
    <glyph glyph-name="Q" unicode="Q" horiz-adv-x="696" 
d="M110 -56l-15 14q4 5 9.5 9.5t11.5 8.5q15 11 35 21t44 14q-9 4 -27.5 15t-38.5 31q-27 26 -50 71.5t-23 116.5q0 159 92.5 291.5t259.5 132.5q116 0 176 -70.5t68 -155.5q1 -7 1.5 -14.5t0.5 -15.5q0 -24 -3 -49t-9 -50q-28 -121 -117.5 -221t-226.5 -100h-1.5h-0.5h-1.5
h-1.5l-2 -1v-6q19 -10 30 -23.5t20 -30.5q2 -3 3.5 -6.5t3.5 -7.5l8.5 -17t13.5 -23q11 -18 25.5 -32.5t29.5 -14.5q14 0 23 5.5t11 12.5q1 1 1 2v2q0 8 -3.5 16.5t-8.5 17.5q-2 3 -3.5 7.5t-1.5 8.5q-1 2 -1 4v4q0 17 12.5 30t30.5 13h2.5h2.5q17 -2 31 -14t14 -32
q0 -5 -1 -10l-2 -10q-10 -31 -45.5 -57t-87.5 -26q-49 0 -80 21t-51 47q-6 8 -11.5 16t-10.5 15q-3 5 -6 9.5t-6 9.5q-12 17 -28 31.5t-38 14.5q-5 0 -11.5 -1.5t-12.5 -4.5q-6 -2 -12 -5t-11 -6q-3 -2 -6 -3.5t-5 -3.5v-1zM207 449l-48 -194q-3 -14 -5 -30t-3 -32
q-1 -17 -1 -33v-30q0 -61 44.5 -91.5t104.5 -30.5q92 0 135.5 67.5t62.5 152.5l43 192q4 17 5.5 43t1.5 54v6v6q0 59 -36.5 88t-80.5 34q-4 0 -9 0.5t-10 0.5q-64 0 -120.5 -46.5t-83.5 -156.5v0z" />
    <glyph glyph-name="R" unicode="R" horiz-adv-x="687" 
d="M69 18l156 625h-92l4 18h313q86 0 129.5 -25t61.5 -55q13 -21 16.5 -40t3.5 -30q0 -14 -3 -31t-11 -34q-18 -36 -66.5 -66t-150.5 -33v-7q57 -16 84.5 -44t36.5 -58q5 -14 6.5 -27.5t1.5 -26.5v-94q0 -23 8 -32t18 -10h1.5h1.5q2 0 4.5 0.5t5.5 1.5q11 3 21.5 13t18.5 21
q3 3 4.5 6t3.5 6q1 2 2 3.5t2 2.5q0 1 0.5 1.5t0.5 1.5q2 1 3.5 3t3.5 5l21 -10q-4 -9 -10 -19t-13 -21q-18 -26 -45.5 -48t-63.5 -22q-41 0 -71.5 26t-30.5 74v14v14t0.5 14t0.5 14l3 75v4.5v4.5q0 9 -1 18.5t-4 19.5q-7 27 -31.5 49t-78.5 22h-75l-81 -324h93l-5 -18h-294
l5 18h92v0zM334 643l-70 -282h109h1.5h1.5q64 1 118 45.5t54 135.5q0 50 -22 70.5t-48 26.5q-14 3 -27 3.5t-23 0.5h-0.5h-0.5h-93v0z" />
    <glyph glyph-name="S" unicode="S" horiz-adv-x="574" 
d="M0 0l49 212h13q10 -80 40 -122t64 -60q24 -12 46 -16t38 -4h4h4q63 3 115 49.5t52 113.5q0 40 -21.5 58t-46.5 27q-3 1 -5.5 2t-4.5 2l-109 37q-53 18 -79 58.5t-26 89.5q0 83 61.5 152.5t164.5 69.5q35 0 59.5 -4t40.5 -9q2 0 4 -0.5t4 -1.5q14 -5 26 -7t22 -2
q8 0 15 4.5t14 11.5h16l-35 -161h-14q-11 60 -35.5 91.5t-52.5 44.5q-18 9 -35.5 12t-30.5 3q-6 0 -12.5 -0.5t-13.5 -1.5q-50 -7 -91.5 -41.5t-41.5 -95.5q0 -36 16.5 -56t36.5 -30q8 -4 15.5 -7t14.5 -5l108 -32q54 -16 81 -58t27 -101q0 -94 -70 -162t-171 -68
q-48 0 -77.5 7t-54.5 21q-3 1 -5 2l-4 2q-14 8 -23 12t-17 4q-5 0 -10.5 -1.5t-11.5 -4.5q-8 -4 -15.5 -12.5t-13.5 -22.5h-24v0z" />
    <glyph glyph-name="T" unicode="T" horiz-adv-x="604" 
d="M328 643h-66q-52 0 -89 -29.5t-60 -65.5q-14 -21 -23.5 -41t-15.5 -34h-18l58 188h546l-46 -188h-20q2 11 3 22.5t1 23.5q0 47 -23 85.5t-83 38.5h-55l-156 -625h93l-5 -18h-294l5 18h92l156 625v0z" />
    <glyph glyph-name="U" unicode="U" horiz-adv-x="672" 
d="M184 643h-92l4 18h294l-4 -18h-93l-116 -466q-1 -4 -2 -8.5t-1 -8.5q-1 -4 -1 -8.5v-8.5q0 -51 37.5 -90.5t103.5 -39.5q13 0 38 3.5t52 16.5q28 14 53 41t38 75l107 403q1 4 1.5 7t1.5 7q1 5 1.5 11t0.5 13q0 22 -10 33t-22 16q-7 2 -13 3t-11 1l4 18h173l-5 -18h-1.5
h-1.5q-8 0 -17.5 -2t-18.5 -6q-18 -9 -34.5 -29t-26.5 -58l-108 -404q-19 -73 -76.5 -112t-141.5 -39q-113 0 -169.5 54t-57.5 119v1.5v1.5q0 5 0.5 9.5t0.5 9.5q1 4 2 9t2 9l109 437v0z" />
    <glyph glyph-name="V" unicode="V" horiz-adv-x="581" 
d="M294 136l201 359q1 2 2.5 4t2.5 4v0.5v0.5q6 10 12 23.5t10 38.5q1 3 1 6v6v2.5v2.5q-1 1 -1 2.5v2.5q-2 10 -6.5 18t-9.5 14q-5 5 -9.5 8.5t-6.5 4.5q-3 2 -5 3.5t-5 2.5q-4 2 -8.5 3t-13.5 1h-16l5 18h218l-4 -18q-49 -4 -78 -40.5t-52 -79.5q-2 -4 -4 -7.5t-4 -6.5
q-2 -5 -4.5 -9t-4.5 -8l-281 -500h-18l-119 651h-75l6 18h251l-5 -18h-72l93 -507v0z" />
    <glyph glyph-name="W" unicode="W" horiz-adv-x="917" 
d="M293 136l174 310l-36 197h-74l5 18h252l-5 -18h-72l92 -507l202 359q17 29 22 46t5 25q0 32 -17.5 54.5t-46.5 22.5h-16l4 18h219l-4 -18q-47 -2 -75.5 -36.5t-50.5 -75.5q-4 -7 -7.5 -13.5t-6.5 -13.5q-2 -3 -3.5 -6t-3.5 -6l-281 -500h-18l-78 426l-240 -426h-18
l-120 651h-74l5 18h252l-5 -18h-72l92 -507v0z" />
    <glyph glyph-name="X" unicode="X" horiz-adv-x="619" 
d="M293 294l-158 -174q-2 -3 -5 -6l-6 -6q-6 -8 -11.5 -17.5t-5.5 -20.5q0 -3 0.5 -6.5t1.5 -7.5q5 -14 21 -25.5t49 -12.5l-4 -18h-203v18q23 6 53 23t67 57l195 213l-117 332h-74l3 18h258l-3 -18h-69l89 -250l138 159q15 17 20.5 28t5.5 21q0 16 -9.5 24.5t-21.5 12.5
q-9 3 -17.5 4t-11.5 1h-10l3 18h204v-18q-39 -6 -64.5 -22t-42.5 -34q-9 -8 -16 -16.5t-13 -15.5l-159 -179l125 -358h80l-6 -18h-272l5 18h78l-97 276v0z" />
    <glyph glyph-name="Y" unicode="Y" horiz-adv-x="572" 
d="M329 328l146 187q2 3 6.5 9t9.5 13q4 5 7.5 10.5t6.5 11.5q2 5 3.5 10t1.5 10q0 42 -19 52.5t-51 11.5l4 18h209l-5 -18q-10 -1 -19.5 -3.5t-18.5 -8.5q-19 -11 -40 -33t-49 -58l-187 -235l-72 -287h93l-5 -18h-294l5 18h92l71 284l-91 341h-67l5 18h252l-5 -18h-74
l85 -315v0z" />
    <glyph glyph-name="Z" unicode="Z" horiz-adv-x="588" 
d="M156 661h432l-450 -643h126q71 0 121 37t96 88q6 7 12.5 14t12.5 14h24l-59 -171h-471l450 643h-88q-24 0 -59.5 -9t-73.5 -31q-28 -17 -56 -43t-51 -63h-24l58 164v0z" />
    <glyph glyph-name="bracketleft" unicode="[" horiz-adv-x="480" 
d="M235 -186l-6 -24h-209l218 871h222l-6 -25h-121l-205 -822h107v0z" />
    <glyph glyph-name="backslash" unicode="\" horiz-adv-x="532" 
d="M462 -70h-70l-322 840h70l322 -840v0z" />
    <glyph glyph-name="bracketright" unicode="]" horiz-adv-x="466" 
d="M245 636l6 25h195l-217 -871h-209l6 24h107l206 822h-94v0z" />
    <glyph glyph-name="asciicircum" unicode="^" horiz-adv-x="364" 
d="M182 574l-81 -81h-84l165 165l165 -165h-84l-81 81v0z" />
    <glyph glyph-name="underscore" unicode="_" horiz-adv-x="532" 
d="M0 -196v70h532v-70h-532v0z" />
    <glyph glyph-name="grave" unicode="`" horiz-adv-x="200" 
d="M136 661l63 -137h-11l-187 137h135v0z" />
    <glyph glyph-name="a" unicode="a" horiz-adv-x="518" 
d="M352 365h5l15 61h89l-97 -367q0 -1 -0.5 -3t-0.5 -4q0 -1 -0.5 -2l-0.5 -1q0 -4 -0.5 -7.5t-0.5 -4.5v-2t1 -2q1 -5 6 -9.5t13 -4.5q10 0 16.5 5t13.5 12l0.5 0.5l1.5 1.5q3 4 6.5 8t6.5 8q10 12 19.5 27t17.5 30q3 6 6 11.5t6 11.5l15 -7q-22 -42 -40 -68.5t-36 -42.5
q-16 -15 -33.5 -20.5t-37.5 -5.5q-31 0 -47.5 18.5t-16.5 47.5v11h-4q-22 -35 -49.5 -56t-69.5 -21q-55 0 -91.5 48.5t-36.5 115.5q0 90 47.5 153t104.5 96q28 17 56 25.5t49 8.5q32 0 47.5 -18.5t19.5 -53.5v0zM302 172l29 107q0 1 1.5 7t3.5 16q1 6 2.5 14t1.5 15
q1 4 1 7.5v6.5q0 39 -17.5 58.5t-40.5 19.5q-33 0 -58 -23t-41 -51q-13 -23 -20.5 -43.5t-9.5 -27.5l-28 -112q-8 -34 -11.5 -54.5t-3.5 -35.5q0 -37 17 -55t39 -18q6 0 12.5 1t12.5 4q32 12 61.5 53.5t48.5 110.5v0z" />
    <glyph glyph-name="b" unicode="b" horiz-adv-x="470" 
d="M165 372l3 -2q32 41 58.5 54t51.5 13q62 0 106 -50t44 -129q0 -13 -2 -27t-5 -27q-21 -81 -91.5 -147.5t-158.5 -66.5q-69 0 -106 51.5t-37 115.5q0 27 4 46.5t10 35.5q1 5 2.5 9.5t2.5 8.5l105 373h-120l3 14h204l-74 -272v0zM128 230l-21 -67q-1 -3 -2 -6.5t-2 -7.5
l-2 -10t-2 -11q-2 -11 -3 -20.5t-1 -15.5q0 -31 19.5 -55t56.5 -24q14 0 32.5 5.5t37.5 28.5q12 14 23.5 35.5t21.5 52.5l31 94q1 4 3 9.5t3 12.5q2 5 3.5 11.5t2.5 12.5l4 24t2 20q0 50 -20 71.5t-44 22.5h-1.5h-1.5q-40 0 -66.5 -30.5t-43.5 -66.5q-11 -26 -18.5 -49.5
t-11.5 -36.5v0z" />
    <glyph glyph-name="c" unicode="c" horiz-adv-x="462" 
d="M374 148l14 -8q-12 -21 -23.5 -38.5t-23.5 -32.5q-34 -44 -70 -61.5t-77 -17.5q-64 0 -115 43t-51 132q0 110 75 185t165 85q6 1 13 1.5t13 0.5q62 0 93.5 -28t32.5 -62v-1.5v-1.5q0 -5 -0.5 -10.5t-2.5 -10.5q-4 -19 -19 -35t-42 -16q-28 0 -41.5 14t-17.5 31
q0 3 -0.5 7t-0.5 7q0 12 5 19.5t12 13.5l0.5 0.5l1.5 1.5q2 1 3.5 2.5l3.5 3.5q5 3 8.5 8t3.5 12q0 3 -0.5 6t-1.5 7q-3 7 -11.5 12.5t-28.5 5.5q-6 0 -12 -0.5t-12 -2.5q-35 -7 -66.5 -42.5t-50.5 -115.5l-25 -96q-4 -12 -6.5 -26t-2.5 -33q0 -49 23.5 -76.5t63.5 -27.5
q20 0 56 13.5t75 65.5q10 14 19.5 30t19.5 36v0z" />
    <glyph glyph-name="d" unicode="d" horiz-adv-x="549" 
d="M321 80h-6q-5 -7 -10 -13.5t-9 -13.5q-22 -28 -47 -45.5t-63 -17.5q-62 0 -98 34t-50 75q-5 14 -7.5 28t-2.5 27q0 24 6.5 53.5t20.5 60.5q28 63 84 116t140 53q46 0 70 -23.5t33 -52.5q1 -2 1.5 -4.5t1.5 -5.5h2l69 279h-112l3 14h202l-144 -585q0 -1 -0.5 -3t-0.5 -4
q0 -1 -0.5 -2t-0.5 -2q0 -3 -0.5 -6t-0.5 -5v-2t1 -2q1 -5 6 -9.5t13 -4.5q13 0 28 14.5t43 60.5q2 3 3.5 6t3.5 5q1 2 2 3.5t2 3.5q3 5 5.5 10t5.5 12l14 -7q-40 -88 -75.5 -112.5t-68.5 -24.5q-34 0 -48.5 17t-16.5 39q-1 3 -1 6.5v6.5v3.5v3.5q1 4 1.5 7.5t0.5 6.5v0z
M171 294l-26 -71q-2 -6 -4.5 -13t-4.5 -16q-1 -5 -2.5 -10.5t-3.5 -10.5q-3 -15 -6 -28.5l-5 -22.5q-1 -7 -1.5 -13.5t-0.5 -13.5q0 -5 0.5 -10.5t1.5 -10.5q0 -1 0.5 -1.5t0.5 -1.5q6 -22 23 -40t45 -18q50 0 93.5 63.5t65.5 138.5q9 31 14 60.5t5 55.5q0 37 -20.5 57
t-44.5 24q-3 1 -6 1h-6q-30 0 -53 -20.5t-38 -44.5q-10 -16 -17 -30.5t-10 -23.5v0z" />
    <glyph glyph-name="e" unicode="e" horiz-adv-x="455" 
d="M124 183l-12 -48q0 -1 -0.5 -2.5t-0.5 -2.5q-2 -7 -3 -14.5t-1 -20.5q0 -8 1.5 -17.5t5.5 -19.5q8 -21 27 -38t55 -17q18 0 47 7t61 26q23 14 44.5 36t39.5 53l14 -6q-6 -9 -12.5 -17t-12.5 -16q-36 -44 -77.5 -70t-109.5 -26q-74 0 -114 51.5t-47 113.5q0 7 -0.5 13.5
t-0.5 13.5q0 89 59.5 153t130.5 88q20 7 39 10.5t37 3.5q59 0 89 -29.5t30 -71.5q0 -59 -45 -85.5t-117 -41.5l-127 -26v0zM129 199l109 25q7 2 19 5.5t25 15.5q11 11 21.5 30t17.5 50l10 44q0 2 0.5 4t0.5 5q1 2 1 4v4q0 15 -9 26t-29 11q-14 0 -32 -5t-36 -18
q-23 -17 -45.5 -51t-37.5 -92l-15 -58v0z" />
    <glyph glyph-name="f" unicode="f" horiz-adv-x="283" 
d="M21 -92l97 504h-92l3 14h92q16 112 69 170t123 58q43 0 67.5 -17t34.5 -38q4 -8 6 -16.5t2 -15.5v-5.5t-1 -5.5q-2 -17 -13.5 -31.5t-35.5 -14.5q-20 0 -31 8.5t-16 19.5q-3 6 -4.5 12t-1.5 10q0 8 2 15.5t5 14.5q1 2 2 4.5t2 4.5q2 4 3 8.5t1 8.5q0 1 -0.5 3t-1.5 3
q-2 5 -8 8.5t-16 3.5q-23 0 -38.5 -19t-24.5 -42q-6 -14 -9.5 -27.5t-5.5 -22.5l-20 -97h117l-2 -14h-118l-66 -346q-4 -18 -8.5 -36.5t-9.5 -36.5q-23 -81 -67.5 -148.5t-125.5 -67.5q-51 0 -81 26.5t-31 57.5v1.5v1.5q0 23 12.5 40t38.5 17q25 0 38 -15.5t13 -34.5
q0 -7 -1 -13.5t-3 -12.5q-1 -2 -2 -4.5t-2 -5.5q-1 -2 -1.5 -3.5t-1.5 -2.5q-1 -4 -2 -7t-1 -6q0 -8 4.5 -11.5t10.5 -5.5q4 -1 8 -1.5t6 -0.5h2.5h2.5h2.5h2.5q6 1 16.5 6t21.5 17q11 13 21 34.5t16 54.5v-1z" />
    <glyph glyph-name="g" unicode="g" horiz-adv-x="479" 
d="M311 82q36 0 54.5 -13t26.5 -28q5 -10 6.5 -18.5t1.5 -14.5q0 -17 -8.5 -43.5t-27.5 -55.5q-30 -46 -90 -85t-157 -39q-82 0 -116.5 23.5t-40.5 52.5q0 3 -0.5 6.5t-0.5 7.5v4v4q3 34 26 62.5t56 28.5q17 0 26.5 -12t10.5 -28q-2 -1 -4 -2.5t-3 -2.5q-28 -22 -33.5 -42.5
t-5.5 -31.5v-2.5v-2.5q2 -19 22 -34t67 -15q74 0 130 32.5t75 70.5q5 9 7 17.5t2 16.5q0 30 -19 39.5t-48 9.5h-3h-3h-3.5h-3.5l-145 -8q-3 1 -5.5 1h-4.5q-52 0 -78 24.5t-26 55.5q0 9 3 26t16 36q11 18 32.5 34.5t56.5 25.5q-2 2 -7 6t-10 11q-7 10 -12.5 25.5t-5.5 38.5
q0 66 52 112.5t114 58.5l18 2t18 1q27 0 47.5 -7.5t33.5 -16.5q1 -1 2 -1.5t2 -1.5q8 20 19 33.5t22 21.5q18 13 33.5 17t20.5 4h2.5h2.5q19 -2 35 -14t16 -33q0 -22 -12 -35.5t-29 -13.5h-3.5h-3.5q-11 2 -20.5 9.5t-9.5 21.5q0 4 1 7.5t2 7.5q2 3 3 6t1 7q0 6 -3 9t-6 4
h-0.5h-1.5q-5 0 -12.5 -4t-15.5 -13q-8 -8 -15 -19.5t-12 -26.5q3 -3 6 -6.5t7 -8.5q7 -11 13 -26.5t6 -37.5q0 -8 -1 -16.5t-3 -16.5q-14 -53 -65.5 -96.5t-127.5 -43.5q-25 0 -45.5 5.5t-40.5 17.5q-5 0 -9.5 -1t-9.5 -2q-21 -6 -38 -20t-17 -38q0 -20 12 -27t27 -8h4.5
h4.5h4.5h3.5l182 8h28v0zM291 248l20 85q2 7 2.5 13.5t0.5 11.5q0 26 -13 39.5t-29 17.5q-3 0 -6 0.5t-6 0.5q-7 0 -17 -2t-20 -9q-13 -8 -24.5 -25t-18.5 -47l-17 -78q0 -2 -0.5 -4.5t-1.5 -5.5q-1 -5 -1.5 -11t-0.5 -12v-4.5v-4.5q2 -17 14 -31t43 -14q25 0 40 13.5
t23 30.5q5 10 8 20t4 16v0z" />
    <glyph glyph-name="h" unicode="h" horiz-adv-x="528" 
d="M165 293h3q2 3 4 5.5t4 5.5q32 41 74.5 77t86.5 50q10 3 19.5 4.5t19.5 1.5h6t6 -1q24 -3 44.5 -20.5t20.5 -59.5q0 -14 -0.5 -23t-2.5 -17q-1 -5 -2.5 -10.5t-3.5 -12.5l-69 -234q0 -1 -0.5 -1.5t-0.5 -1.5q-1 -2 -1.5 -4t-0.5 -4v-2.5v-2.5v-3v-3q0 -1 0.5 -3t0.5 -4
q2 -4 6.5 -7.5t12.5 -3.5q6 0 11 2t10 6q4 4 9 9.5t11 12.5q5 5 10 12.5l11 16.5q2 3 4 6.5t4 6.5q8 12 14.5 24t9.5 19l14 -7q-6 -11 -11.5 -21.5t-11.5 -20.5q-25 -44 -53.5 -69.5t-70.5 -25.5q-28 0 -46 17.5t-18 48.5q0 5 0.5 10.5t1.5 11.5q1 5 2 9.5t2 8.5
q1 6 2.5 11.5t2.5 8.5l61 203q1 3 1.5 7t1.5 8t1.5 8t0.5 7v5v6v1.5v1.5v0.5v1.5q-1 14 -11 25t-27 11q-22 0 -43.5 -13t-39.5 -29q-14 -12 -25 -24t-21 -23q-12 -15 -22 -30.5t-20 -32.5q-2 -2 -3 -4.5t-3 -5.5l-61 -239h-90l167 630h-112l4 14h196l-90 -351v0z" />
    <glyph glyph-name="i" unicode="i" horiz-adv-x="254" 
d="M198 426l-97 -367q0 -1 -0.5 -2.5t-0.5 -3.5t-0.5 -3.5t-0.5 -2.5q-1 -3 -1 -5.5v-4.5q0 -7 3.5 -11t7.5 -5q3 -1 5.5 -1.5t3.5 -0.5q10 0 18 6.5t15 13.5q2 3 4 5.5t4 4.5q8 10 14.5 18.5t11.5 17.5q3 4 5.5 8t4.5 8q4 7 8 15l9 18l14 -7q-43 -95 -81.5 -116t-64.5 -21
q-31 0 -47.5 19t-16.5 47q0 13 3 27t8 33l78 296h-91l3 14h181v0zM132 600q8 23 19 35t22 18q8 3 15.5 4t13.5 1q15 0 26.5 -5.5t11.5 -23.5q0 -7 -1 -14.5t-4 -15.5q-6 -21 -23 -39t-45 -18q-20 0 -29 8t-10 18v1.5v1.5q0 8 1 15t3 14v0z" />
    <glyph glyph-name="j" unicode="j" horiz-adv-x="248" 
d="M220 426l-110 -427q-1 -3 -2 -7.5t-2 -8.5q-19 -72 -48 -112.5t-106 -40.5q-43 0 -67 18.5t-24 46.5q0 22 12.5 35.5t32.5 13.5q18 0 31.5 -11t13.5 -33q0 -5 -1 -8.5t-2 -7.5q-1 -2 -1.5 -4t-1.5 -4q-3 -5 -5 -8.5t-2 -6.5v-2v-2q1 -3 4 -5.5t10 -2.5h2.5h2.5
q5 1 10 3.5t9 5.5q1 0 1.5 0.5l1.5 1.5q3 3 5.5 6.5t4.5 8.5q5 14 12.5 48t28.5 112l100 377h-96l4 14h182v0zM154 600q8 23 19 35t22 18q8 3 15.5 4t13.5 1q15 0 26.5 -5.5t11.5 -23.5q0 -7 -1.5 -15t-4.5 -16q-7 -21 -23.5 -38.5t-44.5 -17.5q-20 0 -29 9t-9 20q0 8 1 15
t3 14v0z" />
    <glyph glyph-name="k" unicode="k" horiz-adv-x="493" 
d="M255 644l-104 -403q6 4 13 5.5t18 1.5h9t13 -1q6 0 11.5 -0.5t9.5 -0.5q38 1 50 16t19 46q1 5 2.5 11t2.5 12q10 44 28.5 75t64.5 31q36 0 52.5 -17.5t19.5 -38.5q1 -2 1 -5v-6q0 -26 -16 -42.5t-39 -16.5q-25 0 -39 15t-14 34q0 8 2.5 13t5.5 8l2 2l2 2l1.5 3t1.5 2
q0 1 0.5 2t0.5 2q1 1 1 2v2v2.5v2.5q-1 1 -1 2.5v2.5q0 3 -3 3.5t-7 0.5h-2.5h-2.5q-12 0 -23 -19.5t-22 -65.5q0 -1 -0.5 -2.5t-0.5 -2.5q-2 -6 -3 -11.5t-2 -11.5q-6 -20 -16 -37.5t-33 -21.5v-4q50 -9 70 -30t23 -53q0 -2 0.5 -4t0.5 -4v-4v-4v-4v-3q-1 -2 -1 -4v-4
q-1 -12 -3 -24t-5 -24q-1 -4 -1.5 -8t-1.5 -8q0 -1 -0.5 -2.5t-0.5 -3.5l-0.5 -1l-0.5 -1q0 -3 -0.5 -5t-0.5 -4v-4.5v-5.5q0 -4 1.5 -8t7.5 -4q10 0 23.5 10.5t28.5 28.5q13 15 25 34.5t22 39.5l14 -5q-5 -11 -12.5 -26t-17.5 -30q-21 -31 -50.5 -56t-67.5 -25
q-32 0 -45.5 15t-17.5 33q-1 8 -1.5 15.5t-0.5 13.5v10.5v7.5q0 9 2 18.5t5 18.5q1 4 2 7.5t2 7.5q1 5 2.5 10t2.5 10q0 1 0.5 1.5t0.5 1.5q1 5 2 9.5t2 8.5q2 5 3 10t1 9q0 16 -11.5 25.5t-24.5 9.5h-1.5h-1.5h-1.5h-1.5q-2 -1 -3.5 -1.5t-3.5 -0.5q-5 -2 -11.5 -3.5
t-12.5 -2.5q-6 -2 -12 -2.5t-11 -0.5q-10 0 -16 1t-11 5l-59 -227h-89l167 630h-112l4 14h196v0z" />
    <glyph glyph-name="l" unicode="l" horiz-adv-x="255" 
d="M255 644l-155 -585q0 -1 -0.5 -2.5t-0.5 -3.5t-0.5 -3t-0.5 -2q0 -3 -0.5 -6t-0.5 -5q0 -7 3.5 -11t7.5 -5q3 -1 5.5 -1.5t3.5 -0.5q10 0 18 6.5t15 13.5q2 3 4 5.5t4 4.5q8 10 14.5 18.5t11.5 17.5q3 4 5.5 8t4.5 8q4 7 8 15l9 18l14 -7q-43 -95 -81.5 -116t-64.5 -21
q-31 0 -48 18.5t-17 47.5q0 10 3 23.5t9 36.5l136 514h-113l4 14h202v0z" />
    <glyph glyph-name="m" unicode="m" horiz-adv-x="802" 
d="M179 293h3q6 9 13 18l14 18q30 35 69.5 66t80.5 40q6 1 11.5 1.5t11.5 0.5q32 0 54.5 -20t22.5 -61q0 -5 -0.5 -10t-0.5 -11q-1 -4 -1.5 -7.5t-1.5 -7.5q0 -4 -0.5 -8t-1.5 -7h6q2 3 4 5.5t4 5.5q24 31 56.5 60t66.5 45q16 8 31 12t30 4q5 0 10 -0.5t11 -1.5
q21 -5 38.5 -22t17.5 -57q0 -17 -3 -33.5t-7 -29.5l-69 -234q0 -1 -0.5 -2.5t-0.5 -3.5t-0.5 -3t-0.5 -2q0 -3 -0.5 -6t-0.5 -5q0 -7 3.5 -11t7.5 -5q3 -1 5.5 -1.5t3.5 -0.5q10 0 18 6.5t15 13.5q2 3 4 5.5t4 4.5q4 5 8 10.5t8 10.5q3 5 6.5 10t6.5 10q7 12 13.5 23.5
t10.5 20.5l14 -7q-43 -95 -81.5 -116t-64.5 -21q-31 0 -47.5 19t-16.5 47q0 5 0.5 10.5t1.5 11.5t2.5 12t2.5 12q1 4 2 7.5t2 6.5l60 203q1 3 1.5 6.5t1.5 7.5q0 5 1 9t1 7v4v4v4v4q-1 18 -12.5 27t-25.5 9q-10 0 -24.5 -5.5t-31.5 -17.5q-36 -27 -58 -55t-41 -60
q-3 -6 -6.5 -12t-7.5 -12l-61 -239h-90l85 319q2 8 3 15.5t2 14.5v5v6v1.5v1.5v0.5v1.5q-1 14 -11 25t-27 11q-10 0 -24.5 -5.5t-31.5 -17.5q-36 -27 -58 -55t-41 -60q-3 -6 -6.5 -12t-7.5 -12l-61 -239h-90l109 412h-96l4 14h182l-34 -133v0z" />
    <glyph glyph-name="n" unicode="n" horiz-adv-x="542" 
d="M179 293h3q11 14 22 27t22 25q43 46 85.5 69t78.5 23q6 0 12.5 -1t13.5 -3q19 -6 35 -23.5t16 -53.5q0 -16 -1.5 -26.5t-3.5 -20.5q-1 -4 -2.5 -8t-2.5 -8l-69 -234q0 -1 -0.5 -2.5t-0.5 -3.5q0 -1 -0.5 -2.5t-0.5 -2.5q0 -4 -0.5 -7t-0.5 -4v-2t1 -2q1 -5 6 -9.5
t13 -4.5q10 0 16.5 5t13.5 12l0.5 0.5l1.5 1.5q3 4 6.5 8t6.5 8q10 12 19.5 27t17.5 30q3 6 6 11.5t6 11.5l15 -7q-22 -42 -40 -68.5t-36 -42.5q-16 -15 -33.5 -20.5t-37.5 -5.5q-31 0 -47.5 18.5t-16.5 47.5q0 5 0.5 10.5t1.5 11.5t2.5 12t2.5 12q1 4 2 7.5t2 6.5l60 203
q1 2 1.5 3.5t0.5 3.5q2 4 2.5 9t1.5 14v5v6v1.5v1.5v0.5v1.5q0 2 -0.5 4t-1.5 4q-3 11 -11.5 19.5t-24.5 8.5q-13 0 -33.5 -8t-49.5 -34q-14 -12 -25 -24t-21 -23q-12 -15 -22 -30.5t-20 -32.5q-2 -2 -3 -4.5t-3 -5.5l-62 -239h-89l109 412h-96l4 14h182l-34 -133v0z" />
    <glyph glyph-name="o" unicode="o" horiz-adv-x="507" 
d="M28 188q0 92 71.5 159t156.5 85q13 2 25.5 3.5t24.5 1.5q76 0 117.5 -55.5t41.5 -128.5q0 -10 -1 -21t-4 -21q-17 -83 -90 -152t-166 -69q-81 0 -128.5 58.5t-47.5 139.5v0zM154 282l-35 -130q-1 -4 -2 -10.5t-2 -13.5q-1 -6 -1.5 -12t-0.5 -10q0 -52 26 -77.5t65 -25.5
q50 0 83 37t45 81l39 144q2 6 3 14.5t2 17.5t1.5 17.5t0.5 14.5q0 44 -21 69t-54 25q-46 0 -77.5 -27.5t-49.5 -60.5q-8 -14 -13.5 -27.5t-8.5 -25.5v0z" />
    <glyph glyph-name="p" unicode="p" horiz-adv-x="522" 
d="M189 341h4q1 3 2 5.5t2 4.5q15 32 42.5 59t79.5 27q62 0 111.5 -54.5t49.5 -151.5t-70.5 -169t-159.5 -72q-55 0 -82 34.5t-28 77.5h-6l-71 -298h-91l151 608h-96l3 14h182l-23 -85v0zM180 253l-16 -69q-1 -4 -1.5 -7t-1.5 -7q-2 -10 -3.5 -21t-1.5 -27q0 -47 13.5 -71.5
t29.5 -34.5q13 -9 25 -11t16 -2q51 0 76.5 42.5t37.5 93.5l2 8l2 8l23 107q3 14 4.5 26.5t1.5 23.5q-1 54 -25.5 82.5t-55.5 28.5q-44 0 -70 -35.5t-40 -77.5q-5 -15 -9 -29.5t-7 -27.5v0z" />
    <glyph glyph-name="q" unicode="q" horiz-adv-x="505" 
d="M484 426l-163 -636h-92l71 268l-4 3q-33 -48 -63 -59.5t-50 -11.5q-65 0 -105 47t-48 104q-1 7 -1.5 14t-0.5 14q0 96 63.5 169.5t140.5 92.5q11 3 21.5 4.5t21.5 1.5q35 0 64 -19t38 -59l30 67h77v0zM170 291l-29 -95q-2 -7 -4 -13l-4 -12q-4 -14 -6.5 -28.5t-2.5 -35.5
q0 -37 11.5 -56.5t25.5 -28.5q9 -5 17.5 -7t13.5 -2q40 0 66.5 31.5t43.5 69.5q10 23 17 44.5t11 36.5l19 68q1 4 2.5 9t2.5 11l2 10l2 10l2 16t1 14q0 5 -0.5 10.5t-2.5 11.5q-5 22 -22.5 40t-52.5 18q-12 0 -29 -5t-35 -23q-13 -13 -25.5 -36t-23.5 -58v0z" />
    <glyph glyph-name="r" unicode="r" horiz-adv-x="356" 
d="M199 426l-16 -64l4 -2q17 33 48.5 54t66.5 23h2.5h2.5q32 0 49.5 -16t23.5 -35q2 -5 3 -11t1 -11q0 -25 -16 -41.5t-40 -16.5q-22 0 -35 13t-13 31q0 8 3 16t9 15l2 2l2 2q2 3 3.5 6t1.5 7t-2.5 6.5t-5.5 3.5q-2 0 -4 0.5t-3 0.5h-0.5h-1.5t-3 -1t-6 -2q-37 -13 -63 -53
t-39 -85q-1 -3 -1.5 -5.5t-1.5 -5.5l-66 -257h-90l109 412h-95l3 14h168v0z" />
    <glyph glyph-name="s" unicode="s" horiz-adv-x="405" 
d="M212 153l-91 64q-10 7 -17 15t-12 16q-9 17 -10.5 32t-1.5 24q0 11 5 25.5t16 29.5q20 29 60 53.5t102 24.5q48 0 81 -22.5t33 -70.5q0 -19 -8.5 -30t-19.5 -15q-6 -3 -11.5 -4t-9.5 -1q-23 0 -37 12t-14 30q0 6 2.5 12t6.5 11q2 2 4 4.5t4 5.5q4 4 7.5 10t3.5 13v4t-1 5
q-3 7 -13.5 13.5t-38.5 6.5q-31 0 -48.5 -12t-26.5 -27q-5 -9 -7.5 -17.5t-3.5 -14.5q-1 -3 -1 -6v-6v-2.5t1 -2.5v-3v-3q2 -12 7 -21.5t16 -19.5q2 -1 4 -3t5 -4l97 -68q10 -7 17.5 -15.5t11.5 -16.5q10 -17 12 -32t2 -23v-3.5v-2.5q0 -50 -54 -89t-144 -39
q-81 0 -110.5 28.5t-29.5 65.5q0 27 16 41.5t37 14.5q20 0 34.5 -11.5t14.5 -32.5q0 -9 -3 -16.5t-7 -13.5q-1 -1 -2 -2.5t-2 -3.5q-1 -1 -1.5 -2.5t-1.5 -2.5v-0.5v-0.5q-2 -3 -3.5 -5.5t-1.5 -6.5q0 -20 18.5 -28.5t40.5 -9.5h2.5h2.5q34 0 60.5 19.5t37.5 43.5
q3 6 4.5 13t1.5 13q0 19 -8 31.5t-17 20.5q-3 2 -5.5 4t-5.5 4v0z" />
    <glyph glyph-name="t" unicode="t" horiz-adv-x="271" 
d="M28 412l3 14h91l40 148h89l-39 -148h101l-3 -14h-102l-93 -353q0 -1 -0.5 -2.5t-0.5 -3.5t-0.5 -3.5t-0.5 -2.5q-1 -3 -1 -5.5v-4.5q0 -7 3.5 -10.5t7.5 -5.5q3 -1 5.5 -1.5t3.5 -0.5q5 0 9.5 2t9.5 5q9 7 17.5 17t15.5 20q6 9 11 17t9 14q2 4 4 7.5t4 6.5q1 1 1.5 2
l1.5 3q3 4 5.5 9t5.5 12l14 -7q-43 -95 -81.5 -116t-64.5 -21q-31 0 -47.5 19t-16.5 47q0 13 3 27t8 33l78 296h-91v0z" />
    <glyph glyph-name="u" unicode="u" horiz-adv-x="535" 
d="M479 426l-97 -367q0 -1 -0.5 -2.5t-0.5 -3.5t-0.5 -3t-0.5 -2q0 -3 -0.5 -6t-0.5 -5q0 -8 4 -12t10 -5q1 -1 3 -1h3q11 0 27.5 14.5t44.5 60.5q2 4 4 7.5t4 6.5q1 1 1.5 2l1.5 3q3 4 5.5 9t5.5 12l14 -7q-43 -95 -81.5 -116t-64.5 -21q-31 0 -47.5 19t-16.5 47
q0 12 2 22.5t5 20.5q1 5 2 9l2 8l4 17h-3q-24 -37 -58 -69.5t-71 -52.5q-19 -10 -38 -15.5t-36 -5.5q-36 0 -52.5 14.5t-22.5 32.5q-3 10 -3.5 19t-0.5 16v5.5v3.5q0 11 1.5 20.5t3.5 18.5q1 4 2 7l2 6l74 279h-96l4 14h181l-82 -319l-2 -12t-2 -11q-1 -6 -1 -12v-12
q0 -2 1 -6.5t3 -9.5q4 -7 11.5 -13t21.5 -6q16 0 34 8.5t37 23.5q25 20 49.5 48t42.5 58q4 6 7.5 12t6.5 12l63 239h90v0z" />
    <glyph glyph-name="v" unicode="v" horiz-adv-x="462" 
d="M17 426h183l-61 -266q-7 -33 -11 -51t-5 -33v-3v-3q0 -25 12 -37.5t26 -15.5q3 0 5.5 -0.5t5.5 -0.5q17 0 35 6.5t36 17.5q44 27 84.5 77t60.5 104q6 19 10 37.5t4 36.5q0 23 -4.5 34.5t-10.5 15.5q-2 2 -5 3t-5 1q-6 0 -9 -0.5t-5 -1.5h-1v0q-3 -1 -7 -1.5t-13 -0.5
q-2 0 -4 0.5t-4 0.5q-9 3 -16.5 13.5t-7.5 30.5q0 19 10.5 29.5t23.5 14.5q6 2 11.5 2.5t9.5 0.5q5 0 9.5 -1t9.5 -3q22 -8 39.5 -34t17.5 -73q0 -22 -4.5 -45t-13.5 -46q-30 -84 -100 -155.5t-148 -86.5q-8 -1 -16.5 -2t-16.5 -1q-49 0 -74.5 22t-32.5 49l-2 12t-1 12
q0 3 1 10.5t3 15.5q0 1 0.5 3t0.5 4q1 5 2 9t2 7l67 278h-94l3 14v0z" />
    <glyph glyph-name="w" unicode="w" horiz-adv-x="705" 
d="M453 426l-60 -266q-7 -29 -12 -52t-5 -38q0 -4 0.5 -8t1.5 -9q4 -14 15 -25.5t32 -11.5q17 0 35.5 7t37.5 20q43 28 81.5 77.5t57.5 102.5q6 19 9.5 37t3.5 35q0 28 -9 40t-20 14h-2.5h-2.5q-3 0 -7 -0.5t-8 -1.5q-5 -1 -10 -1.5t-10 -0.5q-13 0 -23 12.5t-10 32.5
t13.5 31.5t30.5 14.5q3 0 6 0.5t6 0.5h2.5h2.5q28 -3 51.5 -31.5t23.5 -79.5q0 -22 -4.5 -45t-13.5 -46q-28 -79 -90.5 -147.5t-131.5 -89.5q-13 -4 -25 -6t-24 -2q-55 0 -82 29t-27 66v4.5t1 5.5q0 2 0.5 4.5t0.5 4.5q-8 -10 -18.5 -22t-23.5 -24q-27 -26 -63 -47t-75 -21
q-43 0 -62 24t-19 67q0 4 1.5 11.5t2.5 15.5q1 2 1 3.5t1 3.5l2 10t2 8l73 279h-96l4 14h182l-82 -319l-2 -12t-2 -11q-1 -6 -1 -12v-12q0 -3 1 -7t3 -9q3 -7 11 -13t23 -6q14 0 29 6.5t31 17.5q18 13 36 30t32 35q5 5 8.5 10t7.5 10l66 278h-94l3 14h183v0z" />
    <glyph glyph-name="x" unicode="x" horiz-adv-x="580" 
d="M325 257l26 -169v-0.5v-1.5q1 -6 2 -12.5t3 -13.5q3 -17 12.5 -31t31.5 -14q26 0 50.5 22.5t45.5 48.5q9 13 18 24.5t16 21.5l10 -8q-37 -58 -80 -96t-99 -38q-40 0 -61 16.5t-30 37.5q-6 13 -8.5 24.5t-3.5 19.5l-12 82q-20 -30 -32 -46.5t-22 -29.5q-5 -6 -9.5 -12
t-9.5 -13q-4 -5 -7.5 -10t-7.5 -10q-16 -22 -37.5 -40.5t-53.5 -18.5q-36 0 -56.5 23.5t-23.5 52.5v4v4q0 26 18.5 45.5t45.5 19.5h4.5t4.5 -1q17 -3 31 -15.5t14 -32.5t-6.5 -31t-14.5 -17q-3 -3 -6 -5.5t-6 -4.5q-1 -1 -2 -1.5t-1 -1.5q-3 -3 -3 -6.5t1 -5.5v-1v-1
q0 -3 3.5 -5t8.5 -3h2.5h2.5q23 0 55.5 42.5t102.5 139.5l-22 143q0 2 -0.5 4.5t-0.5 4.5q-1 4 -1.5 7.5t-0.5 7.5q-4 20 -11 37t-25 17h-2.5h-3.5q-12 -2 -23.5 -10.5t-21.5 -18.5q-4 -4 -7.5 -8t-6.5 -8q-5 -6 -8.5 -10t-6.5 -7l-0.5 -0.5l-0.5 -0.5q-2 -3 -5 -6l-8 -8
l-10 8q25 30 45 50t39 31q13 8 27 11.5t30 3.5q38 0 63.5 -20t30.5 -61l10 -80q58 101 97.5 131t64.5 30q33 0 57.5 -20.5t24.5 -46.5q0 -28 -15 -46t-38 -18t-41 15t-18 37q0 3 0.5 5.5t0.5 5.5q3 9 8.5 18t11.5 13q2 1 3 2t2 1l4 2t2 5v2.5t-1 2.5q0 2 -2 4t-7 2
q-13 0 -49 -24t-102 -140v0z" />
    <glyph glyph-name="y" unicode="y" horiz-adv-x="505" 
d="M477 426l-98 -367q-26 -94 -65.5 -151t-82.5 -86q-38 -27 -73.5 -36t-61.5 -9q-59 0 -89.5 25t-37.5 55q-1 5 -1.5 9.5t-0.5 8.5q0 23 16.5 42.5t47.5 19.5q28 0 42.5 -17.5t17.5 -37.5v-4v-4q0 -11 -4.5 -21t-13.5 -17q-2 -2 -5 -3.5t-6 -3.5q-6 -3 -11 -7t-5 -10
q0 -2 0.5 -3.5t1.5 -3.5q4 -6 14.5 -10t33.5 -4q64 0 101 47.5t62 130.5l50 164h-1q-28 -41 -66 -76.5t-78 -53.5q-15 -6 -30 -9.5t-29 -3.5q-37 0 -58.5 20.5t-21.5 70.5q0 5 0.5 10.5t1.5 10.5q1 6 2.5 11.5t2.5 11.5q0 2 1 4t1 4l74 279h-96l3 14h182l-82 -319
q-1 -6 -2 -13t-1 -15q-1 -5 -1 -9.5v-9.5q0 -16 7.5 -23.5t16.5 -9.5q3 -1 6.5 -1.5t6.5 -0.5q16 0 34 8.5t37 23.5q25 20 49.5 48t42.5 58q4 6 7.5 12t6.5 12l63 239h89v0z" />
    <glyph glyph-name="z" unicode="z" horiz-adv-x="372" 
d="M5 25v-10v-5t-1 -7t-4 -9t-11 -5t-12 4t-4 11q0 13 8.5 26t18.5 24q2 2 4 4.5t4 4.5l217 238q2 2 3.5 4t3.5 3l1.5 1.5l0.5 0.5l15.5 15.5t23.5 26.5l-3 3q-3 -1 -8 -2l-10 -2q-5 0 -9.5 -1t-8.5 -2q-7 -1 -14 -1.5t-13 -0.5q-8 0 -17.5 0.5t-19.5 1.5h-3h-3
q-11 1 -21.5 2t-18.5 1q-26 0 -39 -6t-24 -27q-2 -4 -3.5 -8t-3.5 -9h-19l53 144q98 -24 148.5 -31.5t83.5 -8.5q1 4 2.5 9t3.5 10q4 9 8.5 17t12.5 10h2h2v0h1h1h1q1 0 2 -0.5t2 -0.5q3 -2 5 -5t2 -9q0 -8 -9.5 -23t-23.5 -32q-2 -3 -4.5 -6t-5.5 -7q-10 -13 -20 -24
t-16 -17l-226 -238l4 -7q12 3 24.5 5t25.5 2q10 0 19 -1t18 -3q6 -1 13 -3.5t14 -6.5l4 -2l4 -2q13 -7 27.5 -12.5t36.5 -5.5t38 11.5t29 28.5l13 -11q-11 -17 -21.5 -30.5t-20.5 -24.5q-21 -22 -42.5 -32.5t-50.5 -10.5q-9 0 -19 1.5t-20 3.5q-13 3 -26 7t-24 7
q-2 1 -3.5 1.5t-3.5 1.5q-36 15 -52 17t-27 2h-2h-2h-11v0z" />
    <glyph glyph-name="braceleft" unicode="{" horiz-adv-x="353" 
d="M295 728l5 -34q-6 -1 -14.5 -3.5t-16.5 -7.5q-17 -9 -31.5 -28.5t-14.5 -55.5q0 -16 1 -34t2 -38q1 -7 1.5 -13.5t0.5 -13.5q0 -3 0.5 -6.5t0.5 -7.5v-7.5v-6.5v-6.5v-6.5q-1 -3 -1 -6.5v-6.5q-4 -70 -31.5 -112.5t-89.5 -73.5q64 -30 90.5 -74.5t30.5 -110.5
q0 -3 0.5 -6.5t0.5 -7.5v-7.5v-6.5v-6.5v-6.5q-1 -3 -1 -6.5v-6.5q0 -6 -0.5 -11.5t-0.5 -9.5q-1 -7 -1.5 -13.5t-1.5 -14.5q0 -6 -0.5 -12t-0.5 -13v-12v-12q0 -38 22 -64.5t55 -30.5l-5 -35q-62 8 -93 38t-43 65q-10 28 -11.5 54t-1.5 39v2.5v2.5q0 8 0.5 17t1.5 18
q0 9 0.5 18.5t0.5 18.5q0 95 -27.5 133.5t-65.5 40.5v41q5 1 11 2t11 3q27 10 49 47t22 122q0 7 -0.5 15.5t-0.5 16.5v2.5v2.5q-1 10 -1.5 19t-0.5 17v2.5v2.5q0 13 1.5 39t11.5 54q12 35 43 65t93 37v0z" />
    <glyph glyph-name="bar" unicode="|" horiz-adv-x="532" 
d="M231 -196v1053h70v-1053h-70v0z" />
    <glyph glyph-name="braceright" unicode="}" horiz-adv-x="353" 
d="M58 -207l-5 34q31 5 54 29.5t23 66.5q0 16 -1 34t-2 38q-1 6 -1.5 12.5t-0.5 13.5q0 3 -0.5 6.5t-0.5 7.5v7.5v6.5v6.5t1 6.5v6.5v6.5q4 66 30.5 110.5t90.5 74.5q-61 31 -88.5 73.5t-32.5 112.5q0 3 -0.5 6.5t-0.5 7.5v7.5v6.5v6.5t1 6.5v6.5v6.5q0 5 0.5 10t1.5 10v3v3
q1 6 1.5 12.5t0.5 11.5q0 6 0.5 12t0.5 13v12v12q0 44 -22.5 66t-54.5 29l5 34q70 -8 100.5 -43t40.5 -75q6 -22 7 -43.5t1 -38.5q0 -9 -0.5 -17t-0.5 -16v-1v-2q0 -8 -0.5 -17t-0.5 -20q0 -98 28 -134.5t64 -39.5v-41q-39 -2 -58.5 -29.5t-26.5 -60.5q-5 -25 -6 -47t-1 -34
v-1.5v-1.5q0 -10 0.5 -18t0.5 -16v-1.5v-0.5q0 -9 0.5 -17.5t0.5 -18.5q0 -17 -1 -38.5t-7 -43.5q-10 -40 -40.5 -75t-100.5 -43v-1z" />
    <glyph glyph-name="asciitilde" unicode="~" horiz-adv-x="518" 
d="M449 367h27q-14 -30 -29 -51t-30 -34q-13 -10 -25.5 -15t-24.5 -5q-19 0 -45 4t-72 14q-48 11 -70 14t-33 3h-5.5h-5.5q-14 -1 -27.5 -8t-24.5 -28h-28q18 42 53 75.5t81 33.5q13 0 29 -2t34 -5q10 -2 20.5 -4t20.5 -5q5 -1 9 -2l8 -2q39 -11 60.5 -15t37.5 -4
q9 0 17 7.5t14 16.5q3 3 5 6l4 6v0z" />
    <glyph glyph-name="x" unicode="&#xd8;" horiz-adv-x="1036" 
d="M501 18h215l156 625h-65l5 18h266l-5 -18h-92l-156 -625h93l-5 -18h-941l4 18h93l155 625h-92l5 18h266l-5 -18h-64l-156 -625h214l156 625h-64l4 18h238l-4 -18h-65l-156 -625v0z" />
    <glyph glyph-name="x" unicode="&#x428;" horiz-adv-x="1036" 
d="M501 18h215l156 625h-65l5 18h266l-5 -18h-92l-156 -625h93l-5 -18h-941l4 18h93l155 625h-92l5 18h266l-5 -18h-64l-156 -625h214l156 625h-64l4 18h238l-4 -18h-65l-156 -625v0z" />
    <glyph glyph-name="p" unicode="&#xd0;" horiz-adv-x="648" 
d="M239 643h-93l5 18h294q84 0 147 -30t63 -110q0 -15 -2.5 -44t-18.5 -60q-21 -44 -78.5 -80.5t-178.5 -36.5h-115l-70 -282h93l-5 -18h-294l4 18h93l156 625v0zM267 318h122q51 0 76.5 20t37.5 44q4 8 6.5 16.5t4.5 15.5l25 101q3 12 4.5 22.5t1.5 19.5q-1 37 -18 55
t-37 25q-9 3 -18 4.5t-16 1.5h-108l-81 -325v0z" />
    <glyph glyph-name="p" unicode="&#x420;" horiz-adv-x="648" 
d="M239 643h-93l5 18h294q84 0 147 -30t63 -110q0 -15 -2.5 -44t-18.5 -60q-21 -44 -78.5 -80.5t-178.5 -36.5h-115l-70 -282h93l-5 -18h-294l4 18h93l156 625v0zM267 318h122q51 0 76.5 20t37.5 44q4 8 6.5 16.5t4.5 15.5l25 101q3 12 4.5 22.5t1.5 19.5q-1 37 -18 55
t-37 25q-9 3 -18 4.5t-16 1.5h-108l-81 -325v0z" />
    <glyph glyph-name="T" unicode="&#xb4;" horiz-adv-x="396" 
d="M119 412h-92l3 14h218q45 0 70 12t39 27q4 4 7 7.5t6 7.5q1 1 2 2.5t2 2.5q6 8 12 17.5t11 25.5h20l-46 -191h-20q-12 50 -33.5 62t-45.5 13h-5.5h-4.5h-52l-107 -412h-89l105 412v0z" />
    <glyph glyph-name="T" unicode="&#x491;" horiz-adv-x="396" 
d="M119 412h-92l3 14h218q45 0 70 12t39 27q4 4 7 7.5t6 7.5q1 1 2 2.5t2 2.5q6 8 12 17.5t11 25.5h20l-46 -191h-20q-12 50 -33.5 62t-45.5 13h-5.5h-4.5h-52l-107 -412h-89l105 412v0z" />
    <glyph glyph-name="bar" unicode="&#xdc;" horiz-adv-x="602" 
d="M267 376h102q97 0 140 -29.5t56 -65.5q5 -14 7 -28t2 -26q0 -19 -5.5 -43.5t-18.5 -50.5q-25 -50 -84.5 -91.5t-169.5 -41.5h-324l4 18h93l155 625h-92l4 18h294l-4 -18h-92l-67 -267v0zM263 358l-85 -340h128q9 0 19 1t19 3q27 6 51 27t37 70l26 103q0 2 0.5 4t1.5 5
q1 4 1.5 9t0.5 10q2 9 2.5 17.5t0.5 11.5q0 39 -18.5 55t-41.5 21q-12 2 -23 2.5t-20 0.5h-0.5h-1.5h-97v0z" />
    <glyph glyph-name="bar" unicode="&#x42c;" horiz-adv-x="602" 
d="M267 376h102q97 0 140 -29.5t56 -65.5q5 -14 7 -28t2 -26q0 -19 -5.5 -43.5t-18.5 -50.5q-25 -50 -84.5 -91.5t-169.5 -41.5h-324l4 18h93l155 625h-92l4 18h294l-4 -18h-92l-67 -267v0zM263 358l-85 -340h128q9 0 19 1t19 3q27 6 51 27t37 70l26 103q0 2 0.5 4t1.5 5
q1 4 1.5 9t0.5 10q2 9 2.5 17.5t0.5 11.5q0 39 -18.5 55t-41.5 21q-12 2 -23 2.5t-20 0.5h-0.5h-1.5h-97v0z" />
    <glyph glyph-name="V" unicode="&#xb6;" horiz-adv-x="448" 
d="M209 -196v546q-77 2 -121 48.5t-52 101.5q-1 6 -1.5 12.5t-0.5 12.5v7t1 7q4 59 48.5 108.5t125.5 52.5h70v-896h-70v0zM349 -196v896h70v-896h-70v0z" />
    <glyph glyph-name="z" unicode="&#xda;" horiz-adv-x="714" 
d="M380 376h101q13 0 26 -0.5t26 -2.5q58 -7 105.5 -38.5t47.5 -107.5q0 -19 -5.5 -43.5t-17.5 -50.5q-25 -50 -84.5 -91.5t-169.5 -41.5h-325l5 18h92l156 625h-79q-70 0 -112.5 -34.5t-64.5 -75.5q-6 -12 -11 -24.5t-8 -23.5h-20l45 176h456l-4 -18h-93l-66 -267v0z
M375 358l-84 -340h127q11 0 23.5 1.5t25.5 5.5q24 8 45.5 29.5t32.5 64.5l25 103q4 14 5.5 28.5t1.5 28.5q0 49 -27 63t-59 16h-8.5h-9.5h-98v0z" />
    <glyph glyph-name="z" unicode="&#x42a;" horiz-adv-x="714" 
d="M380 376h101q13 0 26 -0.5t26 -2.5q58 -7 105.5 -38.5t47.5 -107.5q0 -19 -5.5 -43.5t-17.5 -50.5q-25 -50 -84.5 -91.5t-169.5 -41.5h-325l5 18h92l156 625h-79q-70 0 -112.5 -34.5t-64.5 -75.5q-6 -12 -11 -24.5t-8 -23.5h-20l45 176h456l-4 -18h-93l-66 -267v0z
M375 358l-84 -340h127q11 0 23.5 1.5t25.5 5.5q24 8 45.5 29.5t32.5 64.5l25 103q4 14 5.5 28.5t1.5 28.5q0 49 -27 63t-59 16h-8.5h-9.5h-98v0z" />
    <glyph glyph-name="braceleft" unicode="&#xdb;" horiz-adv-x="952" 
d="M267 376h102q97 0 140 -29.5t56 -65.5q5 -14 7 -28t2 -26q0 -19 -5.5 -43.5t-18.5 -50.5q-25 -50 -84.5 -91.5t-169.5 -41.5h-324l4 18h93l155 625h-92l4 18h294l-4 -18h-92l-67 -267v0zM263 358l-85 -340h128q9 0 19 1t19 3q27 6 51 27t37 70l26 103q0 2 0.5 4t1.5 5
q1 4 1.5 9t0.5 10q2 9 2.5 17.5t0.5 11.5q0 39 -18.5 55t-41.5 21q-12 2 -23 2.5t-20 0.5h-0.5h-1.5h-97v0zM788 643h-93l5 18h294l-5 -18h-92l-156 -625h93l-5 -18h-294l5 18h92l156 625v0z" />
    <glyph glyph-name="braceleft" unicode="&#x42b;" horiz-adv-x="952" 
d="M267 376h102q97 0 140 -29.5t56 -65.5q5 -14 7 -28t2 -26q0 -19 -5.5 -43.5t-18.5 -50.5q-25 -50 -84.5 -91.5t-169.5 -41.5h-324l4 18h93l155 625h-92l4 18h294l-4 -18h-92l-67 -267v0zM263 358l-85 -340h128q9 0 19 1t19 3q27 6 51 27t37 70l26 103q0 2 0.5 4t1.5 5
q1 4 1.5 9t0.5 10q2 9 2.5 17.5t0.5 11.5q0 39 -18.5 55t-41.5 21q-12 2 -23 2.5t-20 0.5h-0.5h-1.5h-97v0zM788 643h-93l5 18h294l-5 -18h-92l-156 -625h93l-5 -18h-294l5 18h92l156 625v0z" />
    <glyph glyph-name="d" unicode="&#xc4;" horiz-adv-x="666" 
d="M452 13h97l-59 -234h-20q0 4 0.5 7.5t0.5 7.5q1 7 1.5 15.5t0.5 17.5q0 11 -1 22.5t-2 22.5q-7 46 -35.5 84.5t-96.5 38.5l-207 -1q-22 1 -47 -6.5t-50 -27.5q-29 -23 -57.5 -66t-53.5 -114l-21 -1l58 234h7h6q73 0 106 53.5t58 129.5q4 13 8.5 26.5t8.5 26.5l75 227
q12 35 16.5 56t4.5 35q0 37 -14.5 56.5t-57.5 19.5h-28l5 18h553l-4 -18h-91l-161 -630v0zM502 643h-115q-55 0 -78 -28t-40 -77q-5 -14 -9.5 -28.5t-9.5 -30.5l-79 -238q-33 -99 -49.5 -130.5t-24.5 -49.5q-2 -5 -3.5 -10t-3.5 -11q-1 -2 -1 -4.5v-5.5v-2.5t1 -3.5
q3 -7 10.5 -9t17.5 -2h226l158 630v0z" />
    <glyph glyph-name="d" unicode="&#x414;" horiz-adv-x="666" 
d="M452 13h97l-59 -234h-20q0 4 0.5 7.5t0.5 7.5q1 7 1.5 15.5t0.5 17.5q0 11 -1 22.5t-2 22.5q-7 46 -35.5 84.5t-96.5 38.5l-207 -1q-22 1 -47 -6.5t-50 -27.5q-29 -23 -57.5 -66t-53.5 -114l-21 -1l58 234h7h6q73 0 106 53.5t58 129.5q4 13 8.5 26.5t8.5 26.5l75 227
q12 35 16.5 56t4.5 35q0 37 -14.5 56.5t-57.5 19.5h-28l5 18h553l-4 -18h-91l-161 -630v0zM502 643h-115q-55 0 -78 -28t-40 -77q-5 -14 -9.5 -28.5t-9.5 -30.5l-79 -238q-33 -99 -49.5 -130.5t-24.5 -49.5q-2 -5 -3.5 -10t-3.5 -11q-1 -2 -1 -4.5v-5.5v-2.5t1 -3.5
q3 -7 10.5 -9t17.5 -2h226l158 630v0z" />
    <glyph glyph-name="h" unicode="&#xc8;" horiz-adv-x="767" 
d="M565 491l-370 -406l-17 -67h93l-5 -18h-294l5 18h92l156 625h-93l5 18h294l-5 -18h-92l-129 -516l371 406l27 110h-92l4 18h294l-4 -18h-93l-155 -625h92l-5 -18h-294l5 18h93l117 473v0z" />
    <glyph glyph-name="h" unicode="&#x418;" horiz-adv-x="767" 
d="M565 491l-370 -406l-17 -67h93l-5 -18h-294l5 18h92l156 625h-93l5 18h294l-5 -18h-92l-129 -516l371 406l27 110h-92l4 18h294l-4 -18h-93l-155 -625h92l-5 -18h-294l5 18h93l117 473v0z" />
    <glyph glyph-name="grave" unicode="&#xc0;" horiz-adv-x="565" 
d="M338 238h-199l-62 -115q-9 -17 -13 -30t-4 -23q0 -23 13.5 -37.5t37.5 -14.5h8l-4 -18h-171l5 18q9 2 17 6.5t16 11.5q14 10 27 25t25 31q7 10 13.5 20t11.5 19l299 538h9l104 -651h73l-5 -18h-245l5 18h71l-32 220v0zM335 256l-43 260l-142 -260h185v0z" />
    <glyph glyph-name="grave" unicode="&#x410;" horiz-adv-x="565" 
d="M338 238h-199l-62 -115q-9 -17 -13 -30t-4 -23q0 -23 13.5 -37.5t37.5 -14.5h8l-4 -18h-171l5 18q9 2 17 6.5t16 11.5q14 10 27 25t25 31q7 10 13.5 20t11.5 19l299 538h9l104 -651h73l-5 -18h-245l5 18h71l-32 220v0zM335 256l-43 260l-142 -260h185v0z" />
    <glyph glyph-name="l" unicode="&#xcc;" horiz-adv-x="845" 
d="M368 131l316 530h203l-4 -18h-92l-156 -625h92l-4 -18h-294l4 18h93l146 589l-368 -615h-18l-64 609l-114 -470q0 -2 -1 -4.5t-1 -5.5q-2 -7 -3 -14.5t-1 -16.5v-6t1 -6q2 -22 17 -40t54 -20l-5 -18h-197l4 18q11 2 24 6.5t27 13.5q19 13 35.5 36t26.5 62l101 398
q5 18 5.5 29t0.5 19v0.5v0.5q0 4 -0.5 12t-2.5 16q-4 12 -13.5 22t-30.5 10h-41l4 18h209l47 -530v0z" />
    <glyph glyph-name="l" unicode="&#x41c;" horiz-adv-x="845" 
d="M368 131l316 530h203l-4 -18h-92l-156 -625h92l-4 -18h-294l4 18h93l146 589l-368 -615h-18l-64 609l-114 -470q0 -2 -1 -4.5t-1 -5.5q-2 -7 -3 -14.5t-1 -16.5v-6t1 -6q2 -22 17 -40t54 -20l-5 -18h-197l4 18q11 2 24 6.5t27 13.5q19 13 35.5 36t26.5 62l101 398
q5 18 5.5 29t0.5 19v0.5v0.5q0 4 -0.5 12t-2.5 16q-4 12 -13.5 22t-30.5 10h-41l4 18h209l47 -530v0z" />
    <glyph glyph-name="quotedbl" unicode="&#xe2;" horiz-adv-x="449" 
d="M275 242h29q8 0 19.5 -0.5t23.5 -3.5q22 -4 40.5 -21t18.5 -56q0 -69 -72 -120t-161 -51q-70 0 -107.5 49.5t-37.5 118.5q0 91 68 167t149 102q16 5 32 7.5t32 2.5q44 0 66 -17.5t29 -38.5q1 -6 2 -11t1 -10q0 -10 -4 -21t-12 -22q-14 -19 -42 -37t-73 -33l-1 -5v0z
M138 195l-17 -63q0 -2 -1 -4t-1 -4q-1 -6 -2.5 -12t-1.5 -12q-2 -7 -2.5 -14t-0.5 -13q0 -1 1 -12t7 -23q6 -13 19.5 -24t39.5 -11q37 0 60 17.5t35 38.5q10 17 15 32.5t6 20.5l7 30q2 10 3 18.5t1 15.5q0 29 -14 41.5t-35 12.5q-8 -1 -17 -2.5t-19 -4.5l-83 -28v0zM143 211
l85 29h0.5h0.5q8 3 18.5 6.5t21.5 10.5q14 8 27.5 24t21.5 46l7 26q0 1 0.5 2.5t1.5 3.5q1 5 2 11.5t1 13.5v1.5v1.5q-1 13 -9 24.5t-31 11.5q-40 0 -76 -40.5t-54 -107.5l-17 -64v0z" />
    <glyph glyph-name="quotedbl" unicode="&#x432;" horiz-adv-x="449" 
d="M275 242h29q8 0 19.5 -0.5t23.5 -3.5q22 -4 40.5 -21t18.5 -56q0 -69 -72 -120t-161 -51q-70 0 -107.5 49.5t-37.5 118.5q0 91 68 167t149 102q16 5 32 7.5t32 2.5q44 0 66 -17.5t29 -38.5q1 -6 2 -11t1 -10q0 -10 -4 -21t-12 -22q-14 -19 -42 -37t-73 -33l-1 -5v0z
M138 195l-17 -63q0 -2 -1 -4t-1 -4q-1 -6 -2.5 -12t-1.5 -12q-2 -7 -2.5 -14t-0.5 -13q0 -1 1 -12t7 -23q6 -13 19.5 -24t39.5 -11q37 0 60 17.5t35 38.5q10 17 15 32.5t6 20.5l7 30q2 10 3 18.5t1 15.5q0 29 -14 41.5t-35 12.5q-8 -1 -17 -2.5t-19 -4.5l-83 -28v0zM143 211
l85 29h0.5h0.5q8 3 18.5 6.5t21.5 10.5q14 8 27.5 24t21.5 46l7 26q0 1 0.5 2.5t1.5 3.5q1 5 2 11.5t1 13.5v1.5v1.5q-1 13 -9 24.5t-31 11.5q-40 0 -76 -40.5t-54 -107.5l-17 -64v0z" />
    <glyph glyph-name="t" unicode="&#xd4;" horiz-adv-x="880" 
d="M519 112h-75l-23 -94h92l-4 -18h-294l4 18h93l23 94h-79q-17 0 -38.5 3t-43.5 11q-44 16 -81 54.5t-37 111.5q0 14 1.5 27.5t3.5 27.5q17 86 88.5 158t211.5 72h90l23 94h-99l4 18h294l-4 -18h-85l-24 -94h66q82 0 125.5 -27.5t62.5 -60.5q16 -26 20 -49t4 -33
q0 -20 -4 -58.5t-23 -80.5q-26 -59 -92 -107.5t-200 -48.5v0zM340 130l107 429h-61q-72 0 -120 -32t-68 -108l-34 -130q-2 -8 -3.5 -18t-2.5 -20q-1 -9 -1 -17v-16q0 -5 2 -17t11 -26q10 -17 35.5 -31t74.5 -14h60v0zM449 130h70h10h10q45 2 87 25t65 114l34 135
q3 12 4.5 24t1.5 23q0 43 -25.5 75.5t-90.5 32.5h-59l-107 -429v0z" />
    <glyph glyph-name="t" unicode="&#x424;" horiz-adv-x="880" 
d="M519 112h-75l-23 -94h92l-4 -18h-294l4 18h93l23 94h-79q-17 0 -38.5 3t-43.5 11q-44 16 -81 54.5t-37 111.5q0 14 1.5 27.5t3.5 27.5q17 86 88.5 158t211.5 72h90l23 94h-99l4 18h294l-4 -18h-85l-24 -94h66q82 0 125.5 -27.5t62.5 -60.5q16 -26 20 -49t4 -33
q0 -20 -4 -58.5t-23 -80.5q-26 -59 -92 -107.5t-200 -48.5v0zM340 130l107 429h-61q-72 0 -120 -32t-68 -108l-34 -130q-2 -8 -3.5 -18t-2.5 -20q-1 -9 -1 -17v-16q0 -5 2 -17t11 -26q10 -17 35.5 -31t74.5 -14h60v0zM449 130h70h10h10q45 2 87 25t65 114l34 135
q3 12 4.5 24t1.5 23q0 43 -25.5 75.5t-90.5 32.5h-59l-107 -429v0z" />
    <glyph glyph-name="U" unicode="&#xb5;" horiz-adv-x="535" 
d="M479 426l-97 -367q0 -1 -0.5 -2.5t-0.5 -3.5t-0.5 -3t-0.5 -2q0 -3 -0.5 -6t-0.5 -5q0 -8 4 -12t10 -5q1 -1 3 -1h3q11 0 27.5 14.5t44.5 60.5q2 4 4 7.5t4 6.5q1 1 1.5 2l1.5 3q3 4 5.5 9t5.5 12l14 -7q-43 -95 -81.5 -116t-64.5 -21q-31 0 -47.5 19t-16.5 47
q0 12 2 22.5t5 20.5q1 5 2 9l2 8l4 17h-3q-20 -31 -45.5 -56.5t-52.5 -44.5q-29 -20 -57 -31t-48 -11h-4.5t-4.5 1q-11 2 -22 7.5t-20 13.5l-5 -30q-2 -9 -3 -19l-2 -20q-1 -8 -2 -15t-1 -14q-6 -58 -18 -101.5t-55 -43.5q-2 0 -9 1t-14 6q-9 5 -16.5 16t-7.5 31q0 29 20 70
t43 93q13 27 24.5 58t20.5 65l84 317h85l-82 -319l-2 -12t-2 -11q-1 -6 -1 -12v-12q0 -2 1 -6.5t3 -9.5q4 -7 11.5 -13t21.5 -6q16 0 34 8.5t37 23.5q25 20 49.5 48t42.5 58q4 6 7.5 12t6.5 12l63 239h90v0z" />
    <glyph glyph-name="e" unicode="&#xc5;" horiz-adv-x="635" 
d="M532 207h19l-51 -207h-528l5 18h92l156 625h-92l4 18h484l-45 -181l-19 1q1 4 1.5 8t0.5 8v7v8q0 53 -30.5 92t-89.5 39h-105l-68 -272h84q60 0 93.5 34.5t45.5 75.5l16 -1l-62 -250h-17v42q0 30 -14 46.5t-31 23.5q-16 8 -29.5 9t-14.5 1h-75l-83 -334h106
q68 0 131.5 37t115.5 152v0z" />
    <glyph glyph-name="e" unicode="&#x415;" horiz-adv-x="635" 
d="M532 207h19l-51 -207h-528l5 18h92l156 625h-92l4 18h484l-45 -181l-19 1q1 4 1.5 8t0.5 8v7v8q0 53 -30.5 92t-89.5 39h-105l-68 -272h84q60 0 93.5 34.5t45.5 75.5l16 -1l-62 -250h-17v42q0 30 -14 46.5t-31 23.5q-16 8 -29.5 9t-14.5 1h-75l-83 -334h106
q68 0 131.5 37t115.5 152v0z" />
    <glyph glyph-name="i" unicode="&#xc9;" horiz-adv-x="767" 
d="M565 491l-370 -406l-17 -67h92l-4 -18h-294l4 18h93l156 625h-93l5 18h294l-5 -18h-92l-129 -516l370 406l28 110h-92l4 18h294l-4 -18h-93l-156 -625h93l-5 -18h-294l5 18h92l118 473v0zM664 835l17 -4q-21 -36 -57 -68.5t-76 -50.5q-16 -7 -31.5 -11t-30.5 -4
q-37 0 -65 22t-28 59q0 26 16.5 44t43.5 18q26 0 40.5 -13.5t18.5 -29.5q1 -4 1.5 -7.5t0.5 -6.5t-0.5 -6t-1.5 -6q-1 -7 -4.5 -13t-8.5 -11l-1.5 -1.5l-1.5 -1.5t-2 -2.5t-2 -3.5q0 -1 -0.5 -2.5t-0.5 -2.5t0.5 -2.5t0.5 -2.5q2 -5 6 -7t9 -2q15 0 32.5 7.5t35.5 20.5
q18 12 35 28t32 32q6 7 11.5 14t10.5 14v0z" />
    <glyph glyph-name="i" unicode="&#x419;" horiz-adv-x="767" 
d="M565 491l-370 -406l-17 -67h92l-4 -18h-294l4 18h93l156 625h-93l5 18h294l-5 -18h-92l-129 -516l370 406l28 110h-92l4 18h294l-4 -18h-93l-156 -625h93l-5 -18h-294l5 18h92l118 473v0zM664 835l17 -4q-21 -36 -57 -68.5t-76 -50.5q-16 -7 -31.5 -11t-30.5 -4
q-37 0 -65 22t-28 59q0 26 16.5 44t43.5 18q26 0 40.5 -13.5t18.5 -29.5q1 -4 1.5 -7.5t0.5 -6.5t-0.5 -6t-1.5 -6q-1 -7 -4.5 -13t-8.5 -11l-1.5 -1.5l-1.5 -1.5t-2 -2.5t-2 -3.5q0 -1 -0.5 -2.5t-0.5 -2.5t0.5 -2.5t0.5 -2.5q2 -5 6 -7t9 -2q15 0 32.5 7.5t35.5 20.5
q18 12 35 28t32 32q6 7 11.5 14t10.5 14v0z" />
    <glyph glyph-name="a" unicode="&#xc1;" horiz-adv-x="670" 
d="M268 380h129q16 0 40.5 -2t50.5 -9q43 -12 78.5 -44t35.5 -98q0 -9 -1 -18t-2 -17q-13 -72 -79 -132t-196 -60h-352l4 18h93l155 625h-92l4 18h492l-39 -186h-17q1 5 1.5 10.5t0.5 11.5q0 9 -1 19t-3 20q-3 13 -7 25.5t-9 22.5q-16 31 -39 45t-59 14h-122l-66 -263v0z
M264 362l-86 -344h156q10 0 20.5 1t20.5 4q26 6 49.5 27.5t35.5 68.5l26 103q0 2 0.5 4t1.5 5q1 4 1.5 9t0.5 10q2 9 2.5 17.5t0.5 11.5q0 49 -25 64.5t-54 17.5q-7 1 -13.5 1h-12.5h-124v0z" />
    <glyph glyph-name="a" unicode="&#x411;" horiz-adv-x="670" 
d="M268 380h129q16 0 40.5 -2t50.5 -9q43 -12 78.5 -44t35.5 -98q0 -9 -1 -18t-2 -17q-13 -72 -79 -132t-196 -60h-352l4 18h93l155 625h-92l4 18h492l-39 -186h-17q1 5 1.5 10.5t0.5 11.5q0 9 -1 19t-3 20q-3 13 -7 25.5t-9 22.5q-16 31 -39 45t-59 14h-122l-66 -263v0z
M264 362l-86 -344h156q10 0 20.5 1t20.5 4q26 6 49.5 27.5t35.5 68.5l26 103q0 2 0.5 4t1.5 5q1 4 1.5 9t0.5 10q2 9 2.5 17.5t0.5 11.5q0 49 -25 64.5t-54 17.5q-7 1 -13.5 1h-12.5h-124v0z" />
    <glyph glyph-name="m" unicode="&#xcd;" horiz-adv-x="764" 
d="M268 379h266l66 264h-92l4 18h294l-4 -18h-93l-155 -625h92l-5 -18h-294l5 18h92l86 343h-267l-85 -343h92l-4 -18h-294l4 18h93l155 625h-92l5 18h294l-5 -18h-92l-66 -264v0z" />
    <glyph glyph-name="m" unicode="&#x41d;" horiz-adv-x="764" 
d="M268 379h266l66 264h-92l4 18h294l-4 -18h-93l-155 -625h92l-5 -18h-294l5 18h92l86 343h-267l-85 -343h92l-4 -18h-294l4 18h93l155 625h-92l5 18h294l-5 -18h-92l-66 -264v0z" />
    <glyph glyph-name="u" unicode="&#xd5;" horiz-adv-x="619" 
d="M293 294l-158 -174q-2 -3 -5 -6l-6 -6q-6 -8 -11.5 -17.5t-5.5 -20.5q0 -3 0.5 -6.5t1.5 -7.5q5 -14 21 -25.5t49 -12.5l-4 -18h-203v18q23 6 53 23t67 57l195 213l-117 332h-74l3 18h258l-3 -18h-69l89 -250l138 159q15 17 20.5 28t5.5 21q0 16 -9.5 24.5t-21.5 12.5
q-9 3 -17.5 4t-11.5 1h-10l3 18h204v-18q-39 -6 -64.5 -22t-42.5 -34q-9 -8 -16 -16.5t-13 -15.5l-159 -179l125 -358h80l-6 -18h-272l5 18h78l-97 276v0z" />
    <glyph glyph-name="u" unicode="&#x425;" horiz-adv-x="619" 
d="M293 294l-158 -174q-2 -3 -5 -6l-6 -6q-6 -8 -11.5 -17.5t-5.5 -20.5q0 -3 0.5 -6.5t1.5 -7.5q5 -14 21 -25.5t49 -12.5l-4 -18h-203v18q23 6 53 23t67 57l195 213l-117 332h-74l3 18h258l-3 -18h-69l89 -250l138 159q15 17 20.5 28t5.5 21q0 16 -9.5 24.5t-21.5 12.5
q-9 3 -17.5 4t-11.5 1h-10l3 18h204v-18q-39 -6 -64.5 -22t-42.5 -34q-9 -8 -16 -16.5t-13 -15.5l-159 -179l125 -358h80l-6 -18h-272l5 18h78l-97 276v0z" />
    <glyph glyph-name="y" unicode="&#xd9;" horiz-adv-x="1036" 
d="M501 18h215l155 625h-64l5 18h266l-5 -18h-92l-156 -625h99l-60 -242h-21q2 12 2.5 28.5t1.5 34.5v16.5v16.5q0 58 -21 84.5t-47 36.5q-16 6 -31 6.5t-25 0.5h-751l4 18h93l155 625h-92l4 18h266l-4 -18h-65l-155 -625h214l156 625h-65l5 18h238l-5 -18h-64l-156 -625v0z
" />
    <glyph glyph-name="y" unicode="&#x429;" horiz-adv-x="1036" 
d="M501 18h215l155 625h-64l5 18h266l-5 -18h-92l-156 -625h99l-60 -242h-21q2 12 2.5 28.5t1.5 34.5v16.5v16.5q0 58 -21 84.5t-47 36.5q-16 6 -31 6.5t-25 0.5h-751l4 18h93l155 625h-92l4 18h266l-4 -18h-65l-155 -625h214l156 625h-65l5 18h238l-5 -18h-64l-156 -625v0z
" />
    <glyph glyph-name="q" unicode="&#xd1;" horiz-adv-x="606" 
d="M503 193l18 1l-51 -194h-18q-1 8 -4.5 12.5t-7.5 7.5q-3 2 -5.5 3t-4.5 1q-10 0 -23 -2t-32 -10q-3 -1 -5.5 -2t-5.5 -2q-16 -6 -36.5 -10.5t-50.5 -4.5h-4h-5q-79 3 -145.5 56t-66.5 165q0 12 0.5 24.5t1.5 24.5q14 152 107 279t233 127q33 0 51 -6t29 -13q3 -3 6 -5
l6 -4q7 -5 15 -8t20 -3q3 0 6.5 0.5t6.5 1.5q10 4 19.5 11.5t15.5 17.5h19l-43 -190h-17q2 82 -37 131t-92 49q-18 0 -41 -5.5t-47 -22.5q-29 -21 -56 -63.5t-45 -118.5l-54 -228q-1 -6 -2.5 -11.5t-2.5 -11.5q-2 -10 -3 -20t-1 -22q0 -59 21.5 -87.5t46.5 -39.5
q18 -7 34 -9t25 -2q70 0 129 41t96 142v0z" />
    <glyph glyph-name="q" unicode="&#x421;" horiz-adv-x="606" 
d="M503 193l18 1l-51 -194h-18q-1 8 -4.5 12.5t-7.5 7.5q-3 2 -5.5 3t-4.5 1q-10 0 -23 -2t-32 -10q-3 -1 -5.5 -2t-5.5 -2q-16 -6 -36.5 -10.5t-50.5 -4.5h-4h-5q-79 3 -145.5 56t-66.5 165q0 12 0.5 24.5t1.5 24.5q14 152 107 279t233 127q33 0 51 -6t29 -13q3 -3 6 -5
l6 -4q7 -5 15 -8t20 -3q3 0 6.5 0.5t6.5 1.5q10 4 19.5 11.5t15.5 17.5h19l-43 -190h-17q2 82 -37 131t-92 49q-18 0 -41 -5.5t-47 -22.5q-29 -21 -56 -63.5t-45 -118.5l-54 -228q-1 -6 -2.5 -11.5t-2.5 -11.5q-2 -10 -3 -20t-1 -22q0 -59 21.5 -87.5t46.5 -39.5
q18 -7 34 -9t25 -2q70 0 129 41t96 142v0z" />
    <glyph glyph-name="braceright" unicode="&#xdd;" horiz-adv-x="609" 
d="M139 471h-17l39 198h19q1 -11 8.5 -18.5t28.5 -7.5q13 0 28 4t32 9q18 5 38 9t44 4q95 0 151.5 -58.5t56.5 -144.5q0 -40 -9 -95.5t-31 -113.5q-16 -42 -38.5 -82.5t-53.5 -75.5q-8 -9 -20 -21t-29 -25q-31 -23 -76.5 -41.5t-107.5 -18.5q-81 0 -126 37.5t-48 83.5v3.5
v2.5q0 5 0.5 10t1.5 10q4 24 21 44t54 20q34 0 49 -16t19 -35q2 -7 2.5 -13.5t0.5 -12.5q0 -24 -9.5 -35t-20.5 -16q-5 -2 -10 -3t-9 -2q0 -1 -0.5 -1h-1.5q-7 -2 -10 -5.5t-4 -7.5q-1 -2 -1 -4v-4q0 -3 0.5 -6t2.5 -6q6 -10 25 -18.5t61 -8.5q65 0 111.5 37t85.5 183
l29 108h-238l4 19h238l20 71q3 11 6 25.5t5 29.5t3 30t1 26q0 54 -32 83t-82 29q-79 0 -129 -51.5t-82 -128.5v0z" />
    <glyph glyph-name="braceright" unicode="&#x42d;" horiz-adv-x="609" 
d="M139 471h-17l39 198h19q1 -11 8.5 -18.5t28.5 -7.5q13 0 28 4t32 9q18 5 38 9t44 4q95 0 151.5 -58.5t56.5 -144.5q0 -40 -9 -95.5t-31 -113.5q-16 -42 -38.5 -82.5t-53.5 -75.5q-8 -9 -20 -21t-29 -25q-31 -23 -76.5 -41.5t-107.5 -18.5q-81 0 -126 37.5t-48 83.5v3.5
v2.5q0 5 0.5 10t1.5 10q4 24 21 44t54 20q34 0 49 -16t19 -35q2 -7 2.5 -13.5t0.5 -12.5q0 -24 -9.5 -35t-20.5 -16q-5 -2 -10 -3t-9 -2q0 -1 -0.5 -1h-1.5q-7 -2 -10 -5.5t-4 -7.5q-1 -2 -1 -4v-4q0 -3 0.5 -6t2.5 -6q6 -10 25 -18.5t61 -8.5q65 0 111.5 37t85.5 183
l29 108h-238l4 19h238l20 71q3 11 6 25.5t5 29.5t3 30t1 26q0 54 -32 83t-82 29q-79 0 -129 -51.5t-82 -128.5v0z" />
    <glyph glyph-name="periodcentered" unicode="&#x2219;" horiz-adv-x="193" 
d="M42 369q0 24 16 39.5t39 15.5t38.5 -15.5t15.5 -39.5q0 -22 -15.5 -38t-38.5 -16q-24 0 -39.5 16t-15.5 38v0z" />
    <glyph glyph-name="f" unicode="&#xc6;" horiz-adv-x="980" 
d="M900 100l17 -7q-28 -41 -60 -70.5t-75 -29.5q-35 0 -60.5 21.5t-25.5 61.5q0 7 1.5 14t2.5 14l29 121q2 8 2.5 15t0.5 14q0 41 -27 64.5t-65 23.5h-84l-81 -324h92l-4 -18h-294l4 18h93l80 324h-86q-50 0 -87 -26.5t-52 -69.5l-50 -142q-14 -39 -32.5 -62t-37.5 -34
q-16 -9 -31.5 -12t-28.5 -3q-41 0 -61.5 27t-34.5 73l16 8q3 -6 6 -13.5t7 -14.5q7 -17 16.5 -30.5t21.5 -13.5q7 0 12 6t8 13q1 4 2.5 7.5t2.5 6.5l53 157q24 72 75.5 96t127.5 32l3 9q-10 7 -15.5 16t-8.5 19q-2 6 -3 12.5t-1 12.5q0 5 0.5 10t1.5 9q1 3 1.5 5t0.5 3
l25 99q1 4 2 10l2 12q0 6 0.5 12t0.5 10t-1 9.5t-3 11.5q-3 9 -10 17t-18 12q-2 1 -5 1.5t-6 0.5q-2 0 -4 -0.5t-4 -1.5l-1 -0.5t-1 -1.5q-3 -2 -5 -5t-2 -6q0 -6 1 -11.5t3 -10.5q1 -1 1.5 -2t0.5 -2t0.5 -1.5l1.5 -1.5q3 -7 5.5 -14.5t2.5 -20.5v-4.5t-1 -4.5
q-3 -16 -19 -29.5t-47 -13.5q-34 0 -49 23t-15 54v6t1 6q4 27 29 50t76 23q48 0 67.5 -29t19.5 -72q0 -7 -1 -13.5t-3 -13.5l-26 -102q-1 -6 -2 -11.5t-1 -10.5q0 -25 18 -40.5t46 -15.5h100l70 282h-92l4 18h294l-4 -18h-93l-70 -282h87v0h1q5 0 19.5 1t31.5 8
q15 6 28.5 18.5t20.5 34.5l39 128q15 48 38.5 83t76.5 35q42 0 64 -20.5t26 -45.5q1 -3 1.5 -7t0.5 -8v-4v-4q-2 -27 -18 -50t-47 -23h-2.5h-2.5q-25 1 -45 16.5t-20 52.5q0 5 1.5 8.5t2.5 7.5q2 3 3.5 6t3.5 5l5.5 5.5t3.5 5.5q1 1 1.5 2.5t0.5 2.5v2v2q-1 6 -4 11t-13 5
q-16 0 -27.5 -18.5t-19.5 -41.5q-4 -9 -7 -18t-5 -17l-40 -126v-0.5t-1 -1.5q-5 -17 -14 -33t-40 -31l-2 -9q83 -7 111 -41.5t28 -76.5q0 -5 -0.5 -9.5t-0.5 -9.5q-1 -10 -3 -19.5t-4 -18.5l-27 -111q-1 -1 -1.5 -4t-0.5 -6v-1.5v-1.5q0 -6 3 -11t11 -5t17 4.5t18 13.5
q11 9 21.5 23.5t19.5 30.5v0z" />
    <glyph glyph-name="f" unicode="&#x416;" horiz-adv-x="980" 
d="M900 100l17 -7q-28 -41 -60 -70.5t-75 -29.5q-35 0 -60.5 21.5t-25.5 61.5q0 7 1.5 14t2.5 14l29 121q2 8 2.5 15t0.5 14q0 41 -27 64.5t-65 23.5h-84l-81 -324h92l-4 -18h-294l4 18h93l80 324h-86q-50 0 -87 -26.5t-52 -69.5l-50 -142q-14 -39 -32.5 -62t-37.5 -34
q-16 -9 -31.5 -12t-28.5 -3q-41 0 -61.5 27t-34.5 73l16 8q3 -6 6 -13.5t7 -14.5q7 -17 16.5 -30.5t21.5 -13.5q7 0 12 6t8 13q1 4 2.5 7.5t2.5 6.5l53 157q24 72 75.5 96t127.5 32l3 9q-10 7 -15.5 16t-8.5 19q-2 6 -3 12.5t-1 12.5q0 5 0.5 10t1.5 9q1 3 1.5 5t0.5 3
l25 99q1 4 2 10l2 12q0 6 0.5 12t0.5 10t-1 9.5t-3 11.5q-3 9 -10 17t-18 12q-2 1 -5 1.5t-6 0.5q-2 0 -4 -0.5t-4 -1.5l-1 -0.5t-1 -1.5q-3 -2 -5 -5t-2 -6q0 -6 1 -11.5t3 -10.5q1 -1 1.5 -2t0.5 -2t0.5 -1.5l1.5 -1.5q3 -7 5.5 -14.5t2.5 -20.5v-4.5t-1 -4.5
q-3 -16 -19 -29.5t-47 -13.5q-34 0 -49 23t-15 54v6t1 6q4 27 29 50t76 23q48 0 67.5 -29t19.5 -72q0 -7 -1 -13.5t-3 -13.5l-26 -102q-1 -6 -2 -11.5t-1 -10.5q0 -25 18 -40.5t46 -15.5h100l70 282h-92l4 18h294l-4 -18h-93l-70 -282h87v0h1q5 0 19.5 1t31.5 8
q15 6 28.5 18.5t20.5 34.5l39 128q15 48 38.5 83t76.5 35q42 0 64 -20.5t26 -45.5q1 -3 1.5 -7t0.5 -8v-4v-4q-2 -27 -18 -50t-47 -23h-2.5h-2.5q-25 1 -45 16.5t-20 52.5q0 5 1.5 8.5t2.5 7.5q2 3 3.5 6t3.5 5l5.5 5.5t3.5 5.5q1 1 1.5 2.5t0.5 2.5v2v2q-1 6 -4 11t-13 5
q-16 0 -27.5 -18.5t-19.5 -41.5q-4 -9 -7 -18t-5 -17l-40 -126v-0.5t-1 -1.5q-5 -17 -14 -33t-40 -31l-2 -9q83 -7 111 -41.5t28 -76.5q0 -5 -0.5 -9.5t-0.5 -9.5q-1 -10 -3 -19.5t-4 -18.5l-27 -111q-1 -1 -1.5 -4t-0.5 -6v-1.5v-1.5q0 -6 3 -11t11 -5t17 4.5t18 13.5
q11 9 21.5 23.5t19.5 30.5v0z" />
    <glyph glyph-name="j" unicode="&#xca;" horiz-adv-x="691" 
d="M612 100l16 -7q-12 -18 -23.5 -33t-23.5 -26q-21 -21 -42 -31t-45 -10q-36 0 -61.5 22t-24.5 62q0 6 1 13l2 14l29 121q2 8 2.5 14.5t0.5 13.5q0 36 -22.5 62.5t-69.5 26.5h-92l-81 -324h92l-4 -18h-294l4 18h93l155 625h-92l4 18h294l-4 -18h-93l-70 -282h96v0h1
q5 0 19.5 1t31.5 8q14 6 27.5 18.5t20.5 34.5l39 128q17 57 43.5 87.5t72.5 30.5q42 0 66.5 -22t24.5 -59t-19.5 -59t-45.5 -22h-1.5h-1.5q-25 1 -45.5 16t-20.5 53q0 5 1.5 8.5t2.5 7.5q1 3 2.5 5.5t2.5 4.5q2 3 4 4.5t4 3.5t3 4t1 5v2v2q-1 6 -4 11t-13 5q-17 0 -27.5 -17
t-17.5 -38q-4 -11 -7 -21.5t-6 -18.5l-41 -126q-2 -5 -3.5 -10t-3.5 -10q-7 -15 -19 -27.5t-36 -18.5l-1 -3q75 -7 110 -35t35 -84q0 -13 -2 -29t-6 -33l-26 -111q0 -1 -0.5 -2.5t-0.5 -3.5t-0.5 -4t-0.5 -4v-1.5v-0.5q1 -5 4 -9t10 -4t15.5 4.5t16.5 11.5q12 10 23.5 25
t20.5 31v0z" />
    <glyph glyph-name="j" unicode="&#x41a;" horiz-adv-x="691" 
d="M612 100l16 -7q-12 -18 -23.5 -33t-23.5 -26q-21 -21 -42 -31t-45 -10q-36 0 -61.5 22t-24.5 62q0 6 1 13l2 14l29 121q2 8 2.5 14.5t0.5 13.5q0 36 -22.5 62.5t-69.5 26.5h-92l-81 -324h92l-4 -18h-294l4 18h93l155 625h-92l4 18h294l-4 -18h-93l-70 -282h96v0h1
q5 0 19.5 1t31.5 8q14 6 27.5 18.5t20.5 34.5l39 128q17 57 43.5 87.5t72.5 30.5q42 0 66.5 -22t24.5 -59t-19.5 -59t-45.5 -22h-1.5h-1.5q-25 1 -45.5 16t-20.5 53q0 5 1.5 8.5t2.5 7.5q1 3 2.5 5.5t2.5 4.5q2 3 4 4.5t4 3.5t3 4t1 5v2v2q-1 6 -4 11t-13 5q-17 0 -27.5 -17
t-17.5 -38q-4 -11 -7 -21.5t-6 -18.5l-41 -126q-2 -5 -3.5 -10t-3.5 -10q-7 -15 -19 -27.5t-36 -18.5l-1 -3q75 -7 110 -35t35 -84q0 -13 -2 -29t-6 -33l-26 -111q0 -1 -0.5 -2.5t-0.5 -3.5t-0.5 -4t-0.5 -4v-1.5v-0.5q1 -5 4 -9t10 -4t15.5 4.5t16.5 11.5q12 10 23.5 25
t20.5 31v0z" />
    <glyph glyph-name="b" unicode="&#xc2;" horiz-adv-x="662" 
d="M69 18l156 625h-92l4 18h313q82 0 121.5 -24.5t52.5 -53.5q6 -12 8 -23.5t2 -21.5q0 -11 -1.5 -22t-5.5 -23q-13 -46 -57.5 -86t-126.5 -53v-7q12 -1 25.5 -2.5t27.5 -5.5q39 -10 71 -38.5t32 -89.5q0 -17 -5.5 -42t-21.5 -53q-26 -43 -86.5 -79.5t-175.5 -36.5h-338
l5 18h92v0zM178 18h134q12 0 29 1t35 8q23 9 44.5 30.5t32.5 66.5l22 89q3 14 4.5 25t1.5 21q0 42 -22 58t-48 20q-11 1 -22 1.5t-20 0.5h-109l-82 -321v0zM264 358h111q51 0 78.5 19.5t40.5 43.5q3 6 5.5 12.5t3.5 12.5l17 69q2 7 3 20t2 27v10v10q0 30 -17.5 42.5
t-39.5 15.5q-11 2 -22 2.5t-19 0.5h-93l-70 -285v0z" />
    <glyph glyph-name="b" unicode="&#x412;" horiz-adv-x="662" 
d="M69 18l156 625h-92l4 18h313q82 0 121.5 -24.5t52.5 -53.5q6 -12 8 -23.5t2 -21.5q0 -11 -1.5 -22t-5.5 -23q-13 -46 -57.5 -86t-126.5 -53v-7q12 -1 25.5 -2.5t27.5 -5.5q39 -10 71 -38.5t32 -89.5q0 -17 -5.5 -42t-21.5 -53q-26 -43 -86.5 -79.5t-175.5 -36.5h-338
l5 18h92v0zM178 18h134q12 0 29 1t35 8q23 9 44.5 30.5t32.5 66.5l22 89q3 14 4.5 25t1.5 21q0 42 -22 58t-48 20q-11 1 -22 1.5t-20 0.5h-109l-82 -321v0zM264 358h111q51 0 78.5 19.5t40.5 43.5q3 6 5.5 12.5t3.5 12.5l17 69q2 7 3 20t2 27v10v10q0 30 -17.5 42.5
t-39.5 15.5q-11 2 -22 2.5t-19 0.5h-93l-70 -285v0z" />
    <glyph glyph-name="n" unicode="&#xce;" horiz-adv-x="696" 
d="M56 245q-1 7 -1 13.5v13.5q0 18 1.5 36.5t5.5 37.5q21 121 108 222t238 101q115 0 174.5 -69.5t69.5 -152.5q1 -8 1.5 -16.5t0.5 -17.5q0 -31 -5.5 -66t-16.5 -70q-33 -107 -116 -195.5t-214 -88.5q-115 0 -177 73t-69 179v0zM207 449l-48 -194q-3 -14 -5 -30t-3 -32
q-1 -17 -1 -33v-30q0 -61 44.5 -91.5t104.5 -30.5q91 0 135 67.5t63 152.5l43 192q4 17 5.5 43t1.5 54v6v6q0 59 -36.5 88t-80.5 34q-4 0 -9 0.5t-10 0.5q-64 0 -120.5 -46.5t-83.5 -156.5v0z" />
    <glyph glyph-name="n" unicode="&#x41e;" horiz-adv-x="696" 
d="M56 245q-1 7 -1 13.5v13.5q0 18 1.5 36.5t5.5 37.5q21 121 108 222t238 101q115 0 174.5 -69.5t69.5 -152.5q1 -8 1.5 -16.5t0.5 -17.5q0 -31 -5.5 -66t-16.5 -70q-33 -107 -116 -195.5t-214 -88.5q-115 0 -177 73t-69 179v0zM207 449l-48 -194q-3 -14 -5 -30t-3 -32
q-1 -17 -1 -33v-30q0 -61 44.5 -91.5t104.5 -30.5q91 0 135 67.5t63 152.5l43 192q4 17 5.5 43t1.5 54v6v6q0 59 -36.5 88t-80.5 34q-4 0 -9 0.5t-10 0.5q-64 0 -120.5 -46.5t-83.5 -156.5v0z" />
    <glyph glyph-name="asterisk" unicode="&#xea;" horiz-adv-x="507" 
d="M213 426l-48 -185q6 4 13 5.5t17 1.5q2 0 8.5 -0.5t14.5 -0.5h1v0q8 0 14.5 -0.5t9.5 -0.5q38 2 49 17.5t16 42.5q1 6 2.5 12t2.5 13q11 51 31.5 78.5t61.5 27.5q36 0 52.5 -17.5t19.5 -38.5q1 -2 1 -5v-6q0 -26 -16 -42.5t-39 -16.5q-25 0 -39 15t-14 34q0 8 2.5 13
t5.5 8l2 2l2 2l1.5 3t1.5 2q0 1 0.5 2t0.5 2q1 1 1 2v2v2.5v2.5q-1 1 -1 2.5v2.5q0 3 -2 3.5t-5 0.5h-0.5h-1.5h-2.5h-3.5q-12 0 -23 -19.5t-22 -65.5q0 -1 -0.5 -2.5t-0.5 -2.5q-2 -6 -3 -11.5t-2 -11.5q-6 -20 -16 -37.5t-33 -21.5v-4q50 -9 70 -30t23 -53q0 -2 0.5 -4
t0.5 -4v-4v-4v-4v-3q-1 -2 -1 -4v-4q-1 -12 -3 -24t-5 -24q-1 -4 -1.5 -8t-1.5 -8q0 -1 -0.5 -2.5t-0.5 -3.5l-0.5 -1l-0.5 -1q0 -3 -0.5 -5t-0.5 -4v-4.5v-5.5q0 -4 1.5 -8t7.5 -4q10 0 23.5 10t27.5 27q13 16 25.5 35.5t22.5 40.5l14 -5q-5 -11 -12.5 -26t-17.5 -30
q-21 -31 -50.5 -56t-67.5 -25q-32 0 -45.5 15t-17.5 33q-1 8 -1.5 15.5t-0.5 13.5v10.5v7.5q0 9 2 18.5t5 18.5q1 4 2 7.5t2 7.5q1 5 2.5 10t2.5 10q0 1 0.5 1.5t0.5 1.5q1 5 2 9.5t2 8.5q2 5 3 10t1 9q0 16 -11.5 24.5t-25.5 10.5h-2.5h-2.5q-10 0 -13.5 -1.5t-5.5 -2.5
q0 -1 -0.5 -1h-0.5q-3 -3 -9 -4.5t-25 -1.5q-10 0 -16 1t-11 5l-59 -227h-89l109 412h-96l4 14h182v0z" />
    <glyph glyph-name="asterisk" unicode="&#x43a;" horiz-adv-x="507" 
d="M213 426l-48 -185q6 4 13 5.5t17 1.5q2 0 8.5 -0.5t14.5 -0.5h1v0q8 0 14.5 -0.5t9.5 -0.5q38 2 49 17.5t16 42.5q1 6 2.5 12t2.5 13q11 51 31.5 78.5t61.5 27.5q36 0 52.5 -17.5t19.5 -38.5q1 -2 1 -5v-6q0 -26 -16 -42.5t-39 -16.5q-25 0 -39 15t-14 34q0 8 2.5 13
t5.5 8l2 2l2 2l1.5 3t1.5 2q0 1 0.5 2t0.5 2q1 1 1 2v2v2.5v2.5q-1 1 -1 2.5v2.5q0 3 -2 3.5t-5 0.5h-0.5h-1.5h-2.5h-3.5q-12 0 -23 -19.5t-22 -65.5q0 -1 -0.5 -2.5t-0.5 -2.5q-2 -6 -3 -11.5t-2 -11.5q-6 -20 -16 -37.5t-33 -21.5v-4q50 -9 70 -30t23 -53q0 -2 0.5 -4
t0.5 -4v-4v-4v-4v-3q-1 -2 -1 -4v-4q-1 -12 -3 -24t-5 -24q-1 -4 -1.5 -8t-1.5 -8q0 -1 -0.5 -2.5t-0.5 -3.5l-0.5 -1l-0.5 -1q0 -3 -0.5 -5t-0.5 -4v-4.5v-5.5q0 -4 1.5 -8t7.5 -4q10 0 23.5 10t27.5 27q13 16 25.5 35.5t22.5 40.5l14 -5q-5 -11 -12.5 -26t-17.5 -30
q-21 -31 -50.5 -56t-67.5 -25q-32 0 -45.5 15t-17.5 33q-1 8 -1.5 15.5t-0.5 13.5v10.5v7.5q0 9 2 18.5t5 18.5q1 4 2 7.5t2 7.5q1 5 2.5 10t2.5 10q0 1 0.5 1.5t0.5 1.5q1 5 2 9.5t2 8.5q2 5 3 10t1 9q0 16 -11.5 24.5t-25.5 10.5h-2.5h-2.5q-10 0 -13.5 -1.5t-5.5 -2.5
q0 -1 -0.5 -1h-0.5q-3 -3 -9 -4.5t-25 -1.5q-10 0 -16 1t-11 5l-59 -227h-89l109 412h-96l4 14h182v0z" />
    <glyph glyph-name="g" unicode="&#xc7;" horiz-adv-x="591" 
d="M143 488l-17 1l52 180h18v-1.5v-1.5q0 -9 3.5 -14.5t7.5 -8.5q2 -2 4 -2.5t4 -0.5q5 0 16 1.5t23 4.5q3 0 6.5 1t6.5 1q10 2 17.5 4t10.5 3l6 2t6 1q17 5 36 8t51 3q70 0 104 -23t46 -51q8 -15 10 -30t2 -26q0 -14 -4 -30.5t-12 -33.5q-20 -40 -61 -75t-100 -44l-1 -6
q52 1 95 -26.5t43 -86.5q0 -15 -3 -31t-9 -32q-25 -69 -103.5 -125t-211.5 -56q-74 0 -111.5 21t-53.5 47q-11 18 -14 35t-3 26v1.5v1.5q1 27 17 49.5t54 22.5q33 0 51.5 -19.5t20.5 -43.5v-2.5v-2.5q0 -5 -1 -10.5t-2 -10.5q-5 -14 -15 -27t-25 -18q-1 0 -1.5 -0.5
l-0.5 -0.5q-6 -2 -11 -6t-5 -19q0 -11 18.5 -17t40.5 -8q9 -1 18 -1.5t16 -0.5q72 0 110.5 26.5t56.5 58.5q7 12 11.5 24t7.5 23l19 75l2 8t1 8q2 8 3 17t1 22q0 33 -17 47.5t-38 19.5q-12 3 -24 3.5t-20 0.5h-0.5h-1.5h-117l5 18h125q41 0 71.5 17t50.5 96l21 81
q2 8 3 14.5t1 13.5q-1 37 -28 52.5t-61 15.5q-58 0 -105 -37.5t-83 -82.5q-9 -11 -17.5 -22t-15.5 -21v0z" />
    <glyph glyph-name="g" unicode="&#x417;" horiz-adv-x="591" 
d="M143 488l-17 1l52 180h18v-1.5v-1.5q0 -9 3.5 -14.5t7.5 -8.5q2 -2 4 -2.5t4 -0.5q5 0 16 1.5t23 4.5q3 0 6.5 1t6.5 1q10 2 17.5 4t10.5 3l6 2t6 1q17 5 36 8t51 3q70 0 104 -23t46 -51q8 -15 10 -30t2 -26q0 -14 -4 -30.5t-12 -33.5q-20 -40 -61 -75t-100 -44l-1 -6
q52 1 95 -26.5t43 -86.5q0 -15 -3 -31t-9 -32q-25 -69 -103.5 -125t-211.5 -56q-74 0 -111.5 21t-53.5 47q-11 18 -14 35t-3 26v1.5v1.5q1 27 17 49.5t54 22.5q33 0 51.5 -19.5t20.5 -43.5v-2.5v-2.5q0 -5 -1 -10.5t-2 -10.5q-5 -14 -15 -27t-25 -18q-1 0 -1.5 -0.5
l-0.5 -0.5q-6 -2 -11 -6t-5 -19q0 -11 18.5 -17t40.5 -8q9 -1 18 -1.5t16 -0.5q72 0 110.5 26.5t56.5 58.5q7 12 11.5 24t7.5 23l19 75l2 8t1 8q2 8 3 17t1 22q0 33 -17 47.5t-38 19.5q-12 3 -24 3.5t-20 0.5h-0.5h-1.5h-117l5 18h125q41 0 71.5 17t50.5 96l21 81
q2 8 3 14.5t1 13.5q-1 37 -28 52.5t-61 15.5q-58 0 -105 -37.5t-83 -82.5q-9 -11 -17.5 -22t-15.5 -21v0z" />
    <glyph glyph-name="k" unicode="&#xcb;" horiz-adv-x="659" 
d="M495 643h-45q-98 0 -127 -35t-45 -84q-2 -7 -4.5 -15t-5.5 -16l-112 -322q-8 -24 -15.5 -44t-14.5 -38q-21 -49 -45 -72.5t-67 -23.5q-42 0 -61.5 23.5t-21.5 52.5v4v4q0 4 0.5 8t0.5 9q4 22 19 40.5t43 18.5q27 0 49 -13t22 -42q0 -16 -5 -27t-11 -16q-2 -2 -4.5 -3.5
t-4.5 -2.5q-3 -2 -5.5 -3.5t-5.5 -2.5t-4.5 -3t-1.5 -4v-3.5t1 -3.5q1 -5 6.5 -8.5t20.5 -3.5q3 0 5.5 0.5t5.5 1.5q16 8 33.5 43t45.5 115l113 327q1 2 1.5 3.5t0.5 2.5q1 3 2 5.5t2 5.5q3 8 5 16.5t2 17.5q0 44 -13.5 62t-29.5 23q-6 2 -12.5 2.5t-12.5 0.5h-34l4 18h532
l-4 -18h-93l-156 -625h93l-5 -18h-294l5 18h92l156 625v0z" />
    <glyph glyph-name="k" unicode="&#x41b;" horiz-adv-x="659" 
d="M495 643h-45q-98 0 -127 -35t-45 -84q-2 -7 -4.5 -15t-5.5 -16l-112 -322q-8 -24 -15.5 -44t-14.5 -38q-21 -49 -45 -72.5t-67 -23.5q-42 0 -61.5 23.5t-21.5 52.5v4v4q0 4 0.5 8t0.5 9q4 22 19 40.5t43 18.5q27 0 49 -13t22 -42q0 -16 -5 -27t-11 -16q-2 -2 -4.5 -3.5
t-4.5 -2.5q-3 -2 -5.5 -3.5t-5.5 -2.5t-4.5 -3t-1.5 -4v-3.5t1 -3.5q1 -5 6.5 -8.5t20.5 -3.5q3 0 5.5 0.5t5.5 1.5q16 8 33.5 43t45.5 115l113 327q1 2 1.5 3.5t0.5 2.5q1 3 2 5.5t2 5.5q3 8 5 16.5t2 17.5q0 44 -13.5 62t-29.5 23q-6 2 -12.5 2.5t-12.5 0.5h-34l4 18h532
l-4 -18h-93l-156 -625h93l-5 -18h-294l5 18h92l156 625v0z" />
    <glyph glyph-name="c" unicode="&#xc3;" horiz-adv-x="565" 
d="M224 643h-92l5 18h484l-46 -184h-16q1 8 1 15.5v14.5q0 51 -20.5 93.5t-82.5 42.5h-123l-156 -625h92l-4 -18h-294l4 18h93l155 625v0z" />
    <glyph glyph-name="c" unicode="&#x413;" horiz-adv-x="565" 
d="M224 643h-92l5 18h484l-46 -184h-16q1 8 1 15.5v14.5q0 51 -20.5 93.5t-82.5 42.5h-123l-156 -625h92l-4 -18h-294l4 18h93l155 625v0z" />
    <glyph glyph-name="o" unicode="&#xcf;" horiz-adv-x="764" 
d="M224 643h-92l5 18h669l-4 -18h-93l-155 -625h92l-5 -18h-294l5 18h92l156 625h-266l-156 -625h92l-4 -18h-294l4 18h93l155 625v0z" />
    <glyph glyph-name="o" unicode="&#x41f;" horiz-adv-x="764" 
d="M224 643h-92l5 18h669l-4 -18h-93l-155 -625h92l-5 -18h-294l5 18h92l156 625h-266l-156 -625h92l-4 -18h-294l4 18h93l155 625v0z" />
    <glyph glyph-name="three" unicode="&#xf3;" horiz-adv-x="505" 
d="M477 426l-98 -367q-26 -94 -65.5 -151t-82.5 -86q-38 -27 -73.5 -36t-61.5 -9q-59 0 -89.5 25t-37.5 55q-1 5 -1.5 9.5t-0.5 8.5q0 23 16.5 42.5t47.5 19.5q28 0 42.5 -17.5t17.5 -37.5v-4v-4q0 -11 -4.5 -21t-13.5 -17q-2 -2 -5 -3.5t-6 -3.5q-6 -3 -11 -7t-5 -10
q0 -2 0.5 -3.5t1.5 -3.5q4 -6 14.5 -10t33.5 -4q64 0 101 47.5t62 130.5l50 164h-1q-28 -41 -66 -76.5t-78 -53.5q-15 -6 -30 -9.5t-29 -3.5q-37 0 -58.5 20.5t-21.5 70.5q0 5 0.5 10.5t1.5 10.5q1 6 2.5 11.5t2.5 11.5q0 2 1 4t1 4l74 279h-96l3 14h182l-82 -319
q-1 -6 -2 -13t-1 -15q-1 -5 -1 -9.5v-9.5q0 -16 7.5 -23.5t16.5 -9.5q3 -1 6.5 -1.5t6.5 -0.5q16 0 34 8.5t37 23.5q25 20 49.5 48t42.5 58q4 6 7.5 12t6.5 12l63 239h89v0z" />
    <glyph glyph-name="three" unicode="&#x443;" horiz-adv-x="505" 
d="M477 426l-98 -367q-26 -94 -65.5 -151t-82.5 -86q-38 -27 -73.5 -36t-61.5 -9q-59 0 -89.5 25t-37.5 55q-1 5 -1.5 9.5t-0.5 8.5q0 23 16.5 42.5t47.5 19.5q28 0 42.5 -17.5t17.5 -37.5v-4v-4q0 -11 -4.5 -21t-13.5 -17q-2 -2 -5 -3.5t-6 -3.5q-6 -3 -11 -7t-5 -10
q0 -2 0.5 -3.5t1.5 -3.5q4 -6 14.5 -10t33.5 -4q64 0 101 47.5t62 130.5l50 164h-1q-28 -41 -66 -76.5t-78 -53.5q-15 -6 -30 -9.5t-29 -3.5q-37 0 -58.5 20.5t-21.5 70.5q0 5 0.5 10.5t1.5 10.5q1 6 2.5 11.5t2.5 11.5q0 2 1 4t1 4l74 279h-96l3 14h182l-82 -319
q-1 -6 -2 -13t-1 -15q-1 -5 -1 -9.5v-9.5q0 -16 7.5 -23.5t16.5 -9.5q3 -1 6.5 -1.5t6.5 -0.5q16 0 34 8.5t37 23.5q25 20 49.5 48t42.5 58q4 6 7.5 12t6.5 12l63 239h89v0z" />
    <glyph glyph-name="S" unicode="&#xb3;" horiz-adv-x="254" 
d="M198 426l-97 -367q0 -1 -0.5 -2.5t-0.5 -3.5t-0.5 -3.5t-0.5 -2.5q-1 -3 -1 -5.5v-4.5q0 -7 3.5 -11t7.5 -5q3 -1 5.5 -1.5t3.5 -0.5q10 0 18 6.5t15 13.5q2 3 4 5.5t4 4.5q8 10 14.5 18.5t11.5 17.5q3 4 5.5 8t4.5 8q4 7 8 15l9 18l14 -7q-43 -95 -81.5 -116t-64.5 -21
q-31 0 -47.5 19t-16.5 47q0 13 3 27t8 33l78 296h-91l3 14h181v0zM132 600q8 23 19 35t22 18q8 3 15.5 4t13.5 1q15 0 26.5 -5.5t11.5 -23.5q0 -7 -1 -14.5t-4 -15.5q-6 -21 -23 -39t-45 -18q-20 0 -29 8t-10 18v1.5v1.5q0 8 1 15t3 14v0z" />
    <glyph glyph-name="S" unicode="&#x456;" horiz-adv-x="254" 
d="M198 426l-97 -367q0 -1 -0.5 -2.5t-0.5 -3.5t-0.5 -3.5t-0.5 -2.5q-1 -3 -1 -5.5v-4.5q0 -7 3.5 -11t7.5 -5q3 -1 5.5 -1.5t3.5 -0.5q10 0 18 6.5t15 13.5q2 3 4 5.5t4 4.5q8 10 14.5 18.5t11.5 17.5q3 4 5.5 8t4.5 8q4 7 8 15l9 18l14 -7q-43 -95 -81.5 -116t-64.5 -21
q-31 0 -47.5 19t-16.5 47q0 13 3 27t8 33l78 296h-91l3 14h181v0zM132 600q8 23 19 35t22 18q8 3 15.5 4t13.5 1q15 0 26.5 -5.5t11.5 -23.5q0 -7 -1 -14.5t-4 -15.5q-6 -21 -23 -39t-45 -18q-20 0 -29 8t-10 18v1.5v1.5q0 8 1 15t3 14v0z" />
    <glyph glyph-name="underscore" unicode="&#xbf;" horiz-adv-x="308" 
d="M205 426l-97 -367q0 -1 -0.5 -2.5t-0.5 -3.5t-0.5 -3.5t-0.5 -2.5q-1 -3 -1 -5.5v-4.5q0 -7 3.5 -11t7.5 -5q3 -1 5.5 -1.5t3.5 -0.5q10 0 18 6.5t15 13.5q2 3 4 5.5t4 4.5q8 10 14.5 18.5t11.5 17.5q3 4 5.5 8t4.5 8q4 7 8 15l9 18l14 -7q-43 -95 -81.5 -116t-64.5 -21
q-31 0 -47.5 19t-16.5 47q0 13 3 27t8 33l78 296h-94l5 14h182v0zM14 602q0 3 0.5 6t1.5 7q3 12 13.5 22t28.5 10q20 0 32.5 -13.5t12.5 -31.5t-12.5 -31.5t-32.5 -13.5q-18 0 -28.5 10t-13.5 22q-1 4 -1.5 7t-0.5 6v0zM189 602q0 20 14 32.5t31 12.5q20 0 33 -14t13 -31
t-13 -31t-33 -14q-17 0 -31 13t-14 32v0z" />
    <glyph glyph-name="underscore" unicode="&#x457;" horiz-adv-x="308" 
d="M205 426l-97 -367q0 -1 -0.5 -2.5t-0.5 -3.5t-0.5 -3.5t-0.5 -2.5q-1 -3 -1 -5.5v-4.5q0 -7 3.5 -11t7.5 -5q3 -1 5.5 -1.5t3.5 -0.5q10 0 18 6.5t15 13.5q2 3 4 5.5t4 4.5q8 10 14.5 18.5t11.5 17.5q3 4 5.5 8t4.5 8q4 7 8 15l9 18l14 -7q-43 -95 -81.5 -116t-64.5 -21
q-31 0 -47.5 19t-16.5 47q0 13 3 27t8 33l78 296h-94l5 14h182v0zM14 602q0 3 0.5 6t1.5 7q3 12 13.5 22t28.5 10q20 0 32.5 -13.5t12.5 -31.5t-12.5 -31.5t-32.5 -13.5q-18 0 -28.5 10t-13.5 22q-1 4 -1.5 7t-0.5 6v0zM189 602q0 20 14 32.5t31 12.5q20 0 33 -14t13 -31
t-13 -31t-33 -14q-17 0 -31 13t-14 32v0z" />
    <glyph glyph-name="bracketleft" unicode="&#xbb;" horiz-adv-x="438" 
d="M169 411l11 7q38 -64 85.5 -116t102.5 -93q-11 -6 -21.5 -12t-20.5 -12q-64 -37 -127.5 -83t-123.5 -102l-6 8q44 54 91 104.5t97 96.5q-28 49 -49.5 99.5t-38.5 102.5v0zM72 318l11 4q21 -32 48 -60.5t61 -52.5q-45 -24 -86 -52.5t-79 -61.5l-10 4q21 30 45.5 57.5
t51.5 52.5q-16 26 -26.5 53t-15.5 56v0z" />
    <glyph glyph-name="bracketright" unicode="&#xbd;" horiz-adv-x="574" 
d="M0 0l49 212h13q10 -80 40 -122t64 -60q24 -12 46 -16t38 -4h4h4q63 3 115 49.5t52 113.5q0 40 -21.5 58t-46.5 27q-3 1 -5.5 2t-4.5 2l-109 37q-53 18 -79 58.5t-26 89.5q0 83 61.5 152.5t164.5 69.5q35 0 59.5 -4t40.5 -9q2 0 4 -0.5t4 -1.5q14 -5 26 -7t22 -2
q8 0 15 4.5t14 11.5h16l-35 -161h-14q-11 60 -35.5 91.5t-52.5 44.5q-18 9 -35.5 12t-30.5 3q-6 0 -12.5 -0.5t-13.5 -1.5q-50 -7 -91.5 -41.5t-41.5 -95.5q0 -36 16.5 -56t36.5 -30q8 -4 15.5 -7t14.5 -5l108 -32q54 -16 81 -58t27 -101q0 -94 -70 -162t-171 -68
q-48 0 -77.5 7t-54.5 21q-3 1 -5 2l-4 2q-14 8 -23 12t-17 4q-5 0 -10.5 -1.5t-11.5 -4.5q-8 -4 -15.5 -12.5t-13.5 -22.5h-24v0z" />
    <glyph glyph-name="bracketright" unicode="&#x405;" horiz-adv-x="574" 
d="M0 0l49 212h13q10 -80 40 -122t64 -60q24 -12 46 -16t38 -4h4h4q63 3 115 49.5t52 113.5q0 40 -21.5 58t-46.5 27q-3 1 -5.5 2t-4.5 2l-109 37q-53 18 -79 58.5t-26 89.5q0 83 61.5 152.5t164.5 69.5q35 0 59.5 -4t40.5 -9q2 0 4 -0.5t4 -1.5q14 -5 26 -7t22 -2
q8 0 15 4.5t14 11.5h16l-35 -161h-14q-11 60 -35.5 91.5t-52.5 44.5q-18 9 -35.5 12t-30.5 3q-6 0 -12.5 -0.5t-13.5 -1.5q-50 -7 -91.5 -41.5t-41.5 -95.5q0 -36 16.5 -56t36.5 -30q8 -4 15.5 -7t14.5 -5l108 -32q54 -16 81 -58t27 -101q0 -94 -70 -162t-171 -68
q-48 0 -77.5 7t-54.5 21q-3 1 -5 2l-4 2q-14 8 -23 12t-17 4q-5 0 -10.5 -1.5t-11.5 -4.5q-8 -4 -15.5 -12.5t-13.5 -22.5h-24v0z" />
    <glyph glyph-name="space" 
 />
    <glyph glyph-name="two" unicode="&#xf2;" horiz-adv-x="802" 
d="M179 293h3q6 9 13 18l14 18q30 35 69.5 66t80.5 40q6 1 11.5 1.5t11.5 0.5q32 0 54.5 -20t22.5 -61q0 -5 -0.5 -10t-0.5 -11q-1 -4 -1.5 -7.5t-1.5 -7.5q0 -4 -0.5 -8t-1.5 -7h6q2 3 4 5.5t4 5.5q24 31 56.5 60t66.5 45q16 8 31 12t30 4q5 0 10 -0.5t11 -1.5
q21 -5 38.5 -22t17.5 -57q0 -17 -3 -33.5t-7 -29.5l-69 -234q0 -1 -0.5 -2.5t-0.5 -3.5t-0.5 -3t-0.5 -2q0 -3 -0.5 -6t-0.5 -5q0 -7 3.5 -11t7.5 -5q3 -1 5.5 -1.5t3.5 -0.5q10 0 18 6.5t15 13.5q2 3 4 5.5t4 4.5q4 5 8 10.5t8 10.5q3 5 6.5 10t6.5 10q7 12 13.5 23.5
t10.5 20.5l14 -7q-43 -95 -81.5 -116t-64.5 -21q-31 0 -47.5 19t-16.5 47q0 5 0.5 10.5t1.5 11.5t2.5 12t2.5 12q1 4 2 7.5t2 6.5l60 203q1 3 1.5 6.5t1.5 7.5q0 5 1 9t1 7v4v4v4v4q-1 18 -12.5 27t-25.5 9q-10 0 -24.5 -5.5t-31.5 -17.5q-36 -27 -58 -55t-41 -60
q-3 -6 -6.5 -12t-7.5 -12l-61 -239h-90l85 319q2 8 3 15.5t2 14.5v5v6v1.5v1.5v0.5v1.5q-1 14 -11 25t-27 11q-10 0 -24.5 -5.5t-31.5 -17.5q-36 -27 -58 -55t-41 -60q-3 -6 -6.5 -12t-7.5 -12l-61 -239h-90l109 412h-96l4 14h182l-34 -133v0z" />
    <glyph glyph-name="two" unicode="&#x442;" horiz-adv-x="802" 
d="M179 293h3q6 9 13 18l14 18q30 35 69.5 66t80.5 40q6 1 11.5 1.5t11.5 0.5q32 0 54.5 -20t22.5 -61q0 -5 -0.5 -10t-0.5 -11q-1 -4 -1.5 -7.5t-1.5 -7.5q0 -4 -0.5 -8t-1.5 -7h6q2 3 4 5.5t4 5.5q24 31 56.5 60t66.5 45q16 8 31 12t30 4q5 0 10 -0.5t11 -1.5
q21 -5 38.5 -22t17.5 -57q0 -17 -3 -33.5t-7 -29.5l-69 -234q0 -1 -0.5 -2.5t-0.5 -3.5t-0.5 -3t-0.5 -2q0 -3 -0.5 -6t-0.5 -5q0 -7 3.5 -11t7.5 -5q3 -1 5.5 -1.5t3.5 -0.5q10 0 18 6.5t15 13.5q2 3 4 5.5t4 4.5q4 5 8 10.5t8 10.5q3 5 6.5 10t6.5 10q7 12 13.5 23.5
t10.5 20.5l14 -7q-43 -95 -81.5 -116t-64.5 -21q-31 0 -47.5 19t-16.5 47q0 5 0.5 10.5t1.5 11.5t2.5 12t2.5 12q1 4 2 7.5t2 6.5l60 203q1 3 1.5 6.5t1.5 7.5q0 5 1 9t1 7v4v4v4v4q-1 18 -12.5 27t-25.5 9q-10 0 -24.5 -5.5t-31.5 -17.5q-36 -27 -58 -55t-41 -60
q-3 -6 -6.5 -12t-7.5 -12l-61 -239h-90l85 319q2 8 3 15.5t2 14.5v5v6v1.5v1.5v0.5v1.5q-1 14 -11 25t-27 11q-10 0 -24.5 -5.5t-31.5 -17.5q-36 -27 -58 -55t-41 -60q-3 -6 -6.5 -12t-7.5 -12l-61 -239h-90l109 412h-96l4 14h182l-34 -133v0z" />
    <glyph glyph-name="asciitilde" unicode="&#xde;" horiz-adv-x="1039" 
d="M268 379h144q28 117 116.5 203.5t222.5 86.5q116 0 176 -70.5t68 -155.5q1 -7 1.5 -14.5t0.5 -15.5q0 -32 -5.5 -67t-17.5 -70q-33 -107 -116 -195t-214 -88q-114 0 -179.5 73t-65.5 179q0 35 2.5 66t5.5 50h-144l-85 -343h92l-4 -18h-294l4 18h93l155 625h-92l5 18h294
l-5 -18h-92l-66 -264v0zM550 449l-48 -194q-3 -14 -5 -30t-3 -32q-1 -17 -1 -33v-30q0 -61 44.5 -91.5t104.5 -30.5q92 0 135.5 67.5t62.5 152.5l43 192q4 17 5.5 43t1.5 54v6v6q0 59 -36.5 88t-80.5 34q-4 0 -9 0.5t-10 0.5q-64 0 -120.5 -46.5t-83.5 -156.5v0z" />
    <glyph glyph-name="asciitilde" unicode="&#x42e;" horiz-adv-x="1039" 
d="M268 379h144q28 117 116.5 203.5t222.5 86.5q116 0 176 -70.5t68 -155.5q1 -7 1.5 -14.5t0.5 -15.5q0 -32 -5.5 -67t-17.5 -70q-33 -107 -116 -195t-214 -88q-114 0 -179.5 73t-65.5 179q0 35 2.5 66t5.5 50h-144l-85 -343h92l-4 -18h-294l4 18h93l155 625h-92l5 18h294
l-5 -18h-92l-66 -264v0zM550 449l-48 -194q-3 -14 -5 -30t-3 -32q-1 -17 -1 -33v-30q0 -61 44.5 -91.5t104.5 -30.5q92 0 135.5 67.5t62.5 152.5l43 192q4 17 5.5 43t1.5 54v6v6q0 59 -36.5 88t-80.5 34q-4 0 -9 0.5t-10 0.5q-64 0 -120.5 -46.5t-83.5 -156.5v0z" />
    <glyph glyph-name="I" unicode="&#xa9;" horiz-adv-x="762" 
d="M42 327v4.5v4.5q3 124 94.5 227t244.5 103q141 0 240 -99.5t99 -239.5q0 -139 -98.5 -238t-240.5 -99q-143 0 -241 99.5t-98 237.5v0zM70 327q0 -127 90 -218.5t221 -91.5q130 0 220.5 91.5t90.5 218.5q0 131 -93 221t-218 90q-126 0 -218.5 -90t-92.5 -221v0zM504 406
h-17q-1 9 -4.5 22.5t-9.5 27.5q-10 23 -32 43t-63 20q-36 0 -56 -24t-30 -52q-7 -23 -9.5 -43.5t-3.5 -28.5v-4v-4v-5v-4v-8v-7v-8v-8q2 -92 26 -133t53 -51q7 -3 14 -4t14 -1q41 0 75.5 35.5t45.5 90.5h17l-5 -137h-17v1.5v1.5q0 6 -3 10t-6 6h-0.5h-1.5q-7 0 -11 -1.5
t-7 -4.5q-2 -1 -4.5 -3t-5.5 -4q-8 -5 -25 -9t-53 -4q-93 0 -138 52t-54 114q-2 9 -2.5 18t-0.5 18q0 7 0.5 14.5t1.5 14.5q7 72 53 131.5t133 59.5q29 0 44 -2t24 -4q4 -2 7 -3l6 -2t6 -1.5t7 -0.5q1 0 1.5 0.5t1.5 0.5q3 2 5 5t3 7h15l6 -132v0z" />
    <glyph glyph-name="H" unicode="&#xa8;" horiz-adv-x="635" 
d="M532 207h19l-52 -207h-527l5 18h92l156 625h-92l4 18h484l-45 -181l-19 1q1 4 1.5 8t0.5 8v7v8q0 53 -30.5 92t-89.5 39h-104l-69 -272h84q60 0 93.5 34.5t45.5 75.5l16 -1l-62 -250h-17v42q0 30 -14 46.5t-31 23.5q-16 8 -29.5 9t-14.5 1h-75l-83 -334h105
q95 0 152.5 52t95.5 137v0zM231 738q0 23 13.5 30t30.5 8h8h8h2h2h2h1h10h10q16 -2 29 -9t13 -29t-13 -29t-29 -9h-10h-10h-1h-2h-2h-2h-8h-8q-17 1 -30.5 8t-13.5 30v0zM458 738q0 23 13.5 30t30.5 8h8h8h2h2h1.5h1.5h10.5t11.5 -1q15 -1 27.5 -8.5t12.5 -28.5t-12.5 -28.5
t-27.5 -8.5q-6 -1 -11.5 -1h-10.5h-1.5h-1.5h-2h-2h-8h-8q-17 1 -30.5 8t-13.5 30v0z" />
    <glyph glyph-name="H" unicode="&#x401;" horiz-adv-x="635" 
d="M532 207h19l-52 -207h-527l5 18h92l156 625h-92l4 18h484l-45 -181l-19 1q1 4 1.5 8t0.5 8v7v8q0 53 -30.5 92t-89.5 39h-104l-69 -272h84q60 0 93.5 34.5t45.5 75.5l16 -1l-62 -250h-17v42q0 30 -14 46.5t-31 23.5q-16 8 -29.5 9t-14.5 1h-75l-83 -334h105
q95 0 152.5 52t95.5 137v0zM231 738q0 23 13.5 30t30.5 8h8h8h2h2h2h1h10h10q16 -2 29 -9t13 -29t-13 -29t-29 -9h-10h-10h-1h-2h-2h-2h-8h-8q-17 1 -30.5 8t-13.5 30v0zM458 738q0 23 13.5 30t30.5 8h8h8h2h2h1.5h1.5h10.5t11.5 -1q15 -1 27.5 -8.5t12.5 -28.5t-12.5 -28.5
t-27.5 -8.5q-6 -1 -11.5 -1h-10.5h-1.5h-1.5h-2h-2h-8h-8q-17 1 -30.5 8t-13.5 30v0z" />
    <glyph glyph-name="J" unicode="&#xaa;" horiz-adv-x="606" 
d="M191 349h259l-5 -18h-254l-18 -101q-3 -18 -4.5 -34t-1.5 -31q0 -79 39 -117t100 -38q56 0 94.5 19t54.5 42q3 4 5 9t3 9q0 1 0.5 2t0.5 2v1v2v1.5v1.5q-1 1 -1 1.5v1.5q-2 5 -5 8.5t-7 5.5q-1 1 -2.5 1.5t-2.5 1.5q-2 1 -5 3t-7 5q-6 5 -11 15t-5 26q0 24 14.5 38.5
t32.5 17.5q2 1 4.5 1h4.5q22 0 39.5 -16t17.5 -44q0 -14 -4.5 -29.5t-12.5 -31.5q-23 -42 -76.5 -76.5t-138.5 -34.5q-104 0 -173.5 55t-69.5 167q0 17 1 33.5t3 33.5q19 145 110.5 266t227.5 121q30 0 49.5 -6t33.5 -13q11 -6 19.5 -11t17.5 -7q1 -1 3 -1h4q3 0 6.5 0.5
t6.5 1.5q10 4 19.5 11.5t15.5 17.5h19l-34 -191h-20q-1 82 -35.5 125t-76.5 52q-6 2 -12.5 2.5t-12.5 0.5q-59 0 -97 -36t-59 -79q-14 -27 -22 -53t-12 -42l-20 -92v0z" />
    <glyph glyph-name="J" unicode="&#x404;" horiz-adv-x="606" 
d="M191 349h259l-5 -18h-254l-18 -101q-3 -18 -4.5 -34t-1.5 -31q0 -79 39 -117t100 -38q56 0 94.5 19t54.5 42q3 4 5 9t3 9q0 1 0.5 2t0.5 2v1v2v1.5v1.5q-1 1 -1 1.5v1.5q-2 5 -5 8.5t-7 5.5q-1 1 -2.5 1.5t-2.5 1.5q-2 1 -5 3t-7 5q-6 5 -11 15t-5 26q0 24 14.5 38.5
t32.5 17.5q2 1 4.5 1h4.5q22 0 39.5 -16t17.5 -44q0 -14 -4.5 -29.5t-12.5 -31.5q-23 -42 -76.5 -76.5t-138.5 -34.5q-104 0 -173.5 55t-69.5 167q0 17 1 33.5t3 33.5q19 145 110.5 266t227.5 121q30 0 49.5 -6t33.5 -13q11 -6 19.5 -11t17.5 -7q1 -1 3 -1h4q3 0 6.5 0.5
t6.5 1.5q10 4 19.5 11.5t15.5 17.5h19l-34 -191h-20q-1 82 -35.5 125t-76.5 52q-6 2 -12.5 2.5t-12.5 0.5q-59 0 -97 -36t-59 -79q-14 -27 -22 -53t-12 -42l-20 -92v0z" />
    <glyph glyph-name="quoteright" unicode="&#x2019;" horiz-adv-x="253" 
d="M66 398l-10 15q52 35 73.5 62.5t31.5 43.5q2 3 3.5 5.5t2.5 4.5q2 3 3 6t1 8v2v2v1v2v1.5v1.5q-1 4 -3 6t-5 3q-2 0 -3.5 0.5t-2.5 0.5h-1.5h-1.5q-1 -1 -1.5 -1h-1.5t-3 -0.5t-3 -0.5h-3.5h-3.5q-16 0 -29 11.5t-13 40.5q0 30 17.5 43t39.5 13q4 0 9 -0.5t10 -2.5
q15 -5 27 -20.5t12 -51.5q0 -11 -2.5 -23t-7.5 -23q-15 -39 -48 -75.5t-69 -62.5q-5 -3 -9.5 -6t-8.5 -6v0z" />
    <glyph glyph-name="OE" unicode="&#x152;" horiz-adv-x="977" 
d="M268 379h266l66 264h-92l4 18h294l-4 -18h-93l-66 -267h101q13 0 26 -0.5t26 -2.5q58 -7 105.5 -38.5t47.5 -107.5q0 -19 -5.5 -43.5t-17.5 -50.5q-25 -50 -84.5 -91.5t-169.5 -41.5h-325l5 18h92l86 343h-266l-86 -343h93l-5 -18h-294l5 18h92l156 625h-93l5 18h293
l-4 -18h-93l-65 -264v0zM638 358l-84 -340h127q11 0 23.5 1.5t25.5 5.5q24 8 45.5 29.5t32.5 64.5l25 103q4 14 5.5 28.5t1.5 28.5q0 49 -27 63t-59 16h-8.5h-9.5h-98v0z" />
    <glyph glyph-name="s" 
 />
    <glyph glyph-name="r" unicode="&#xd3;" horiz-adv-x="610" 
d="M369 213l174 277q6 10 11.5 19.5t9.5 18.5q6 15 9.5 30t3.5 33q0 25 -17.5 38.5t-43.5 13.5h-12l4 18h228l-3 -18q-23 0 -41.5 -9t-32.5 -20q-5 -4 -9.5 -8t-7.5 -8l-4.5 -4.5l-4.5 -4.5q-5 -5 -9.5 -10.5t-8.5 -11.5q-10 -14 -21.5 -31.5t-27.5 -42.5l-254 -406
q-9 -14 -18 -25.5t-19 -20.5q-34 -35 -65.5 -41.5t-46.5 -6.5q-57 0 -83.5 31t-27.5 68v1.5v1.5q0 31 22.5 51t59.5 20q32 0 45.5 -16t17.5 -35q0 -5 0.5 -9.5t0.5 -8.5q0 -19 -9 -31t-24 -20l-4 -2l-4 -2q-4 -3 -7.5 -6t-5.5 -7q0 -1 -0.5 -2.5t-0.5 -2.5t0.5 -2.5
t0.5 -2.5q2 -4 9 -7t18 -3q41 0 70.5 26.5t52.5 60.5l-182 547h-70l4 18h252l-3 -18h-72l146 -430v0z" />
    <glyph glyph-name="r" unicode="&#x423;" horiz-adv-x="610" 
d="M369 213l174 277q6 10 11.5 19.5t9.5 18.5q6 15 9.5 30t3.5 33q0 25 -17.5 38.5t-43.5 13.5h-12l4 18h228l-3 -18q-23 0 -41.5 -9t-32.5 -20q-5 -4 -9.5 -8t-7.5 -8l-4.5 -4.5l-4.5 -4.5q-5 -5 -9.5 -10.5t-8.5 -11.5q-10 -14 -21.5 -31.5t-27.5 -42.5l-254 -406
q-9 -14 -18 -25.5t-19 -20.5q-34 -35 -65.5 -41.5t-46.5 -6.5q-57 0 -83.5 31t-27.5 68v1.5v1.5q0 31 22.5 51t59.5 20q32 0 45.5 -16t17.5 -35q0 -5 0.5 -9.5t0.5 -8.5q0 -19 -9 -31t-24 -20l-4 -2l-4 -2q-4 -3 -7.5 -6t-5.5 -7q0 -1 -0.5 -2.5t-0.5 -2.5t0.5 -2.5
t0.5 -2.5q2 -4 9 -7t18 -3q41 0 70.5 26.5t52.5 60.5l-182 547h-70l4 18h252l-3 -18h-72l146 -430v0z" />
    <glyph glyph-name="Scaron" unicode="&#xd2;" horiz-adv-x="604" 
d="M328 643h-66q-52 0 -89 -29.5t-60 -65.5q-14 -21 -23.5 -41t-15.5 -34h-18l58 188h546l-46 -188h-20q2 11 3 22.5t1 23.5q0 47 -23 85.5t-83 38.5h-55l-156 -625h93l-5 -18h-294l5 18h92l156 625v0z" />
    <glyph glyph-name="Scaron" unicode="&#x422;" horiz-adv-x="604" 
d="M328 643h-66q-52 0 -89 -29.5t-60 -65.5q-14 -21 -23.5 -41t-15.5 -34h-18l58 188h546l-46 -188h-20q2 11 3 22.5t1 23.5q0 47 -23 85.5t-83 38.5h-55l-156 -625h93l-5 -18h-294l5 18h92l156 625v0z" />
    <glyph glyph-name="backslash" 
 />
    <glyph glyph-name="perthousand" unicode="&#x160;" horiz-adv-x="862" 
d="M485 643h-70q-72 0 -102.5 -28t-51.5 -92q-3 -7 -5.5 -14.5t-4.5 -15.5l-98 -322q-3 -11 -6.5 -22t-6.5 -21q-19 -61 -44 -98t-82 -37q-43 0 -62.5 25t-20.5 56v1.5v1.5q0 4 0.5 8t0.5 9q4 22 18.5 40.5t43.5 18.5q32 0 51.5 -16t19.5 -39q0 -13 -4 -25t-11 -18
q-1 -1 -3 -2.5t-3 -2.5q-3 -1 -6.5 -2.5t-6.5 -2.5q-3 -2 -5.5 -3.5t-2.5 -5.5v-3.5t1 -3.5q1 -5 6.5 -8.5t20.5 -3.5q8 0 16 4.5t15 14.5q13 17 26 51t30 90l99 327q1 2 1.5 3.5t0.5 3.5q1 3 1.5 5t1.5 5q3 8 4.5 16.5t1.5 17.5q0 45 -12 62.5t-27 22.5q-7 2 -14 2.5
t-12 0.5h-0.5h-0.5h-34l7 18h536l-4 -18h-93l-66 -267h101q13 0 26 -0.5t26 -2.5q58 -7 105.5 -38.5t47.5 -107.5q0 -19 -5.5 -43.5t-18.5 -50.5q-25 -50 -84 -91.5t-169 -41.5h-325l5 18h92l156 625v0zM439 18h127q9 0 19 1t19 3q27 6 51 27t37 70l26 103q0 2 0.5 3.5
l1.5 4.5q2 8 3.5 20t1.5 24v3v2q0 49 -27 63t-59 16h-8.5h-9.5h-98l-84 -340v0z" />
    <glyph glyph-name="nine" 
 />
    <glyph glyph-name="colon" 
 />
    <glyph glyph-name="w" unicode="&#xbc;" horiz-adv-x="248" 
d="M220 426l-110 -427q-1 -3 -2 -7.5t-2 -8.5q-19 -72 -48 -112.5t-106 -40.5q-43 0 -67 18.5t-24 46.5q0 22 12.5 35.5t32.5 13.5q18 0 31.5 -11t13.5 -33q0 -5 -1 -8.5t-2 -7.5q-1 -2 -1.5 -4t-1.5 -4q-3 -5 -5 -8.5t-2 -6.5v-2v-2q1 -3 4 -5.5t10 -2.5h2.5h2.5
q5 1 10 3.5t9 5.5q1 0 1.5 0.5l1.5 1.5q3 3 5.5 6.5t4.5 8.5q5 14 12.5 48t28.5 112l100 377h-96l4 14h182v0zM154 600q8 23 19 35t22 18q8 3 15.5 4t13.5 1q15 0 26.5 -5.5t11.5 -23.5q0 -7 -1.5 -15t-4.5 -16q-7 -21 -23.5 -38.5t-44.5 -17.5q-20 0 -29 9t-9 20q0 8 1 15
t3 14v0z" />
    <glyph glyph-name="w" unicode="&#x458;" horiz-adv-x="248" 
d="M220 426l-110 -427q-1 -3 -2 -7.5t-2 -8.5q-19 -72 -48 -112.5t-106 -40.5q-43 0 -67 18.5t-24 46.5q0 22 12.5 35.5t32.5 13.5q18 0 31.5 -11t13.5 -33q0 -5 -1 -8.5t-2 -7.5q-1 -2 -1.5 -4t-1.5 -4q-3 -5 -5 -8.5t-2 -6.5v-2v-2q1 -3 4 -5.5t10 -2.5h2.5h2.5
q5 1 10 3.5t9 5.5q1 0 1.5 0.5l1.5 1.5q3 3 5.5 6.5t4.5 8.5q5 14 12.5 48t28.5 112l100 377h-96l4 14h182v0zM154 600q8 23 19 35t22 18q8 3 15.5 4t13.5 1q15 0 26.5 -5.5t11.5 -23.5q0 -7 -1.5 -15t-4.5 -16q-7 -21 -23.5 -38.5t-44.5 -17.5q-20 0 -29 9t-9 20q0 8 1 15
t3 14v0z" />
    <glyph glyph-name="v" unicode="&#x2030;" horiz-adv-x="1077" 
d="M612 730l12 -10l-594 -731l-12 12l521 640l-2 7q-19 -15 -41.5 -28.5t-46.5 -23.5q-25 -10 -48.5 -16t-42.5 -6q-10 0 -21.5 1.5t-22.5 4.5l-20 6t-19 7l-4 -1q5 -8 8.5 -23t3.5 -37q0 -63 -54.5 -107.5t-125.5 -44.5q-44 0 -73.5 35t-29.5 89q0 67 44 110t97 53
q7 1 13.5 1.5t12.5 0.5q23 0 39.5 -6.5t31.5 -16.5q4 -3 7.5 -5.5t7.5 -5.5q7 -5 14.5 -10t14.5 -9q18 -12 37.5 -18.5t46.5 -6.5q17 0 34.5 3.5t34.5 10.5q39 14 76 39t67 52q10 9 18.5 17.5t15.5 16.5v0zM98 592l-37 -103q-4 -10 -5 -22t-1 -27q0 -19 16 -32.5t41 -13.5
q29 0 44.5 17t24.5 38q1 3 2.5 6.5t2.5 6.5l33 88q5 14 7.5 26.5t2.5 22.5q0 30 -17.5 43t-39.5 13q-31 0 -47.5 -18.5t-26.5 -44.5v0zM339 132q0 60 38 97t84 48q10 2 20 3.5t20 1.5q52 0 87.5 -32t35.5 -93q0 -10 -1.5 -20t-4.5 -20q-13 -46 -54 -84.5t-104 -38.5
q-67 0 -94 40.5t-27 97.5v0zM433 197l-32 -85q-2 -5 -3.5 -12t-2.5 -14t-1.5 -13.5t-0.5 -11.5q0 -4 1 -9.5t3 -11.5q4 -12 14 -22.5t29 -10.5q30 0 49 15.5t30 34.5q5 7 8 15t5 14l22 70q6 18 8.5 33t2.5 26q-1 32 -17.5 42.5t-38.5 10.5q-24 0 -38.5 -12.5t-23.5 -27.5
q-5 -9 -8.5 -17t-5.5 -14v0zM708 132q0 60 38 97t84 48q10 2 20 3.5t20 1.5q52 0 87.5 -32t35.5 -93q0 -10 -1.5 -20t-4.5 -20q-13 -46 -54 -84.5t-104 -38.5q-67 0 -94 40.5t-27 97.5v0zM802 197l-32 -85q-2 -5 -3.5 -12t-2.5 -14t-1.5 -13.5t-0.5 -11.5q0 -4 1 -9.5
t3 -11.5q4 -12 14 -22.5t29 -10.5q30 0 49 15.5t30 34.5q5 7 8 15t5 14l22 70q6 18 8.5 33t2.5 26q-1 32 -17.5 42.5t-38.5 10.5q-24 0 -38.5 -12.5t-23.5 -27.5q-5 -9 -8.5 -17t-5.5 -14v0z" />
    <glyph glyph-name="Y" 
 />
    <glyph glyph-name="X" 
 />
    <glyph glyph-name="asciicircum" 
 />
    <glyph glyph-name="semicolon" 
 />
    <glyph glyph-name="equal" 
 />
    <glyph glyph-name="question" unicode="&#xf9;" horiz-adv-x="767" 
d="M711 426l-97 -367q-1 -3 -1.5 -5.5t-1.5 -5.5q0 -3 -0.5 -5.5t-0.5 -5.5q0 -7 5.5 -12.5t15.5 -5.5q6 0 11 2t10 6q4 4 9 9.5t11 12.5q5 5 10 12.5l11 16.5q2 3 4 6.5t4 6.5q8 12 14.5 24t9.5 19l14 -7l-10 -20q-2 -3 -4 -6.5t-4 -7.5q-13 -25 -19 -52.5t-10 -64.5
q0 -2 -0.5 -4.5t-0.5 -4.5t-0.5 -3.5t-0.5 -2.5q-7 -65 -32.5 -120.5t-125.5 -60.5l-6 11q12 2 19.5 7.5t14.5 16.5q15 23 38 75t87 141l-4 3q-2 -3 -5.5 -7t-7.5 -8q-11 -11 -30 -20t-46 -9q-28 0 -46 17.5t-18 48.5q0 5 0.5 10.5t1.5 11.5t2.5 12t2.5 12q1 4 2 7.5t2 6.5
l5 17h-3q-5 -10 -12 -20t-15 -20q-26 -35 -61 -64t-71 -37q-5 -1 -10 -1.5t-10 -0.5h-2.5h-2.5q-28 1 -51.5 19t-23.5 72q0 5 0.5 10.5t1.5 10.5q1 6 2.5 11.5t2.5 11.5q0 2 1 4t1 4h-6q-7 -12 -19 -29t-27 -35q-26 -30 -60 -54.5t-73 -24.5h-2.5h-2.5q-28 1 -51.5 19
t-23.5 72q0 5 0.5 10.5t1.5 10.5q1 6 2.5 11.5t2.5 11.5q0 2 1 4t1 4l74 279h-95l3 14h181l-82 -312q-1 -6 -2 -13t-1 -15q-1 -5 -1 -9.5v-9.5q0 -16 7.5 -23.5t16.5 -9.5q3 -1 6.5 -1.5t6.5 -0.5q13 0 28.5 8.5t31.5 22.5q20 18 39 43t35 51q5 9 10 18.5t9 18.5l63 232h90
l-83 -312q-1 -6 -2 -13t-1 -15q-1 -5 -1 -9.5v-9.5q0 -16 7.5 -23.5t16.5 -9.5q3 -1 6.5 -1.5t6.5 -0.5q11 0 22 5t23 13q18 14 36 35t34 43q12 18 22 35.5t16 30.5l63 232h90v0z" />
    <glyph glyph-name="question" unicode="&#x449;" horiz-adv-x="767" 
d="M711 426l-97 -367q-1 -3 -1.5 -5.5t-1.5 -5.5q0 -3 -0.5 -5.5t-0.5 -5.5q0 -7 5.5 -12.5t15.5 -5.5q6 0 11 2t10 6q4 4 9 9.5t11 12.5q5 5 10 12.5l11 16.5q2 3 4 6.5t4 6.5q8 12 14.5 24t9.5 19l14 -7l-10 -20q-2 -3 -4 -6.5t-4 -7.5q-13 -25 -19 -52.5t-10 -64.5
q0 -2 -0.5 -4.5t-0.5 -4.5t-0.5 -3.5t-0.5 -2.5q-7 -65 -32.5 -120.5t-125.5 -60.5l-6 11q12 2 19.5 7.5t14.5 16.5q15 23 38 75t87 141l-4 3q-2 -3 -5.5 -7t-7.5 -8q-11 -11 -30 -20t-46 -9q-28 0 -46 17.5t-18 48.5q0 5 0.5 10.5t1.5 11.5t2.5 12t2.5 12q1 4 2 7.5t2 6.5
l5 17h-3q-5 -10 -12 -20t-15 -20q-26 -35 -61 -64t-71 -37q-5 -1 -10 -1.5t-10 -0.5h-2.5h-2.5q-28 1 -51.5 19t-23.5 72q0 5 0.5 10.5t1.5 10.5q1 6 2.5 11.5t2.5 11.5q0 2 1 4t1 4h-6q-7 -12 -19 -29t-27 -35q-26 -30 -60 -54.5t-73 -24.5h-2.5h-2.5q-28 1 -51.5 19
t-23.5 72q0 5 0.5 10.5t1.5 10.5q1 6 2.5 11.5t2.5 11.5q0 2 1 4t1 4l74 279h-95l3 14h181l-82 -312q-1 -6 -2 -13t-1 -15q-1 -5 -1 -9.5v-9.5q0 -16 7.5 -23.5t16.5 -9.5q3 -1 6.5 -1.5t6.5 -0.5q13 0 28.5 8.5t31.5 22.5q20 18 39 43t35 51q5 9 10 18.5t9 18.5l63 232h90
l-83 -312q-1 -6 -2 -13t-1 -15q-1 -5 -1 -9.5v-9.5q0 -16 7.5 -23.5t16.5 -9.5q3 -1 6.5 -1.5t6.5 -0.5q11 0 22 5t23 13q18 14 36 35t34 43q12 18 22 35.5t16 30.5l63 232h90v0z" />
    <glyph glyph-name="A" unicode="&#xfa;" horiz-adv-x="490" 
d="M276 396l-6 8q-6 -4 -15.5 -9.5t-20.5 -10.5q-6 -3 -12.5 -5.5t-12.5 -5.5q-19 -8 -36 -13.5t-26 -5.5q-5 0 -10.5 0.5t-10.5 2.5q-6 1 -11.5 2.5t-10.5 2.5q-4 1 -7.5 2t-6.5 2q-4 1 -7.5 1.5t-7.5 0.5q-27 0 -44 -8t-31 -26q-2 -4 -5 -8t-6 -9l-10 5q2 2 2.5 4t1.5 3
q0 2 1 3t1 3q2 3 4 6.5t4 8.5q3 6 9 17t16 24q15 17 35.5 31t47.5 14q13 0 25.5 -4t23.5 -8q7 -3 13.5 -5.5t11.5 -4.5q4 -1 8.5 -2t8.5 -2q4 0 8.5 -0.5t8.5 -0.5q7 0 15 0.5t15 1.5q17 3 34 7.5t30 9.5q7 2 13 4.5t11 4.5l18 -11q-28 -34 -39 -48.5t-18 -24.5
q-1 0 -1.5 -1t-0.5 -2q-5 -7 -11 -16.5t-17 -27.5q-3 -5 -6.5 -10.5t-6.5 -10.5q-3 -6 -6.5 -12t-6.5 -12q-4 -7 -7 -14t-6 -15q24 32 53 49.5t66 17.5q53 0 79.5 -29t33.5 -63q2 -9 3 -17t1 -16q0 -11 -2.5 -22.5t-8.5 -23.5q-23 -52 -85.5 -95t-133.5 -43q-64 0 -97 45
t-33 104q0 22 5 42t15 40q15 30 44 61.5t72 70.5q10 9 16 15l11 11q4 3 8 7.5t10 9.5v0zM337 120l10 42q1 3 2 9t3 14v0.5v1.5q2 8 3.5 15t1.5 10q1 6 1.5 12t0.5 12v7.5t-2 7.5q-1 2 -2.5 5.5t-3.5 6.5q-5 6 -13 10.5t-21 4.5q-16 0 -41.5 -13.5t-57.5 -59.5
q-9 -13 -16 -29.5t-12 -33.5q-7 -21 -10 -40.5t-3 -33.5v0v-1q0 -3 0.5 -12.5t3.5 -19.5q4 -13 14 -23.5t30 -10.5q4 0 8 0.5t9 1.5q29 5 55.5 33t39.5 84v0z" />
    <glyph glyph-name="A" unicode="&#x44a;" horiz-adv-x="490" 
d="M276 396l-6 8q-6 -4 -15.5 -9.5t-20.5 -10.5q-6 -3 -12.5 -5.5t-12.5 -5.5q-19 -8 -36 -13.5t-26 -5.5q-5 0 -10.5 0.5t-10.5 2.5q-6 1 -11.5 2.5t-10.5 2.5q-4 1 -7.5 2t-6.5 2q-4 1 -7.5 1.5t-7.5 0.5q-27 0 -44 -8t-31 -26q-2 -4 -5 -8t-6 -9l-10 5q2 2 2.5 4t1.5 3
q0 2 1 3t1 3q2 3 4 6.5t4 8.5q3 6 9 17t16 24q15 17 35.5 31t47.5 14q13 0 25.5 -4t23.5 -8q7 -3 13.5 -5.5t11.5 -4.5q4 -1 8.5 -2t8.5 -2q4 0 8.5 -0.5t8.5 -0.5q7 0 15 0.5t15 1.5q17 3 34 7.5t30 9.5q7 2 13 4.5t11 4.5l18 -11q-28 -34 -39 -48.5t-18 -24.5
q-1 0 -1.5 -1t-0.5 -2q-5 -7 -11 -16.5t-17 -27.5q-3 -5 -6.5 -10.5t-6.5 -10.5q-3 -6 -6.5 -12t-6.5 -12q-4 -7 -7 -14t-6 -15q24 32 53 49.5t66 17.5q53 0 79.5 -29t33.5 -63q2 -9 3 -17t1 -16q0 -11 -2.5 -22.5t-8.5 -23.5q-23 -52 -85.5 -95t-133.5 -43q-64 0 -97 45
t-33 104q0 22 5 42t15 40q15 30 44 61.5t72 70.5q10 9 16 15l11 11q4 3 8 7.5t10 9.5v0zM337 120l10 42q1 3 2 9t3 14v0.5v1.5q2 8 3.5 15t1.5 10q1 6 1.5 12t0.5 12v7.5t-2 7.5q-1 2 -2.5 5.5t-3.5 6.5q-5 6 -13 10.5t-21 4.5q-16 0 -41.5 -13.5t-57.5 -59.5
q-9 -13 -16 -29.5t-12 -33.5q-7 -21 -10 -40.5t-3 -33.5v0v-1q0 -3 0.5 -12.5t3.5 -19.5q4 -13 14 -23.5t30 -10.5q4 0 8 0.5t9 1.5q29 5 55.5 33t39.5 84v0z" />
    <glyph glyph-name="exclam" 
 />
    <glyph glyph-name="parenright" unicode="&#xd7;" horiz-adv-x="661" 
d="M341 18l78 310q-88 -37 -141.5 -51.5t-100.5 -14.5h-1.5h-1.5q-48 0 -77.5 23.5t-29.5 69.5q1 9 2 19t4 21l62 248h-93l5 18h294l-5 -18h-92l-59 -236q-5 -22 -9 -33.5t-5 -20.5v-3.5v-2.5q0 -22 6.5 -36.5t30.5 -20.5q3 -1 5.5 -1.5t4.5 -0.5h4.5h5.5q7 0 13.5 0.5
t12.5 1.5q18 3 42 10t49 16q13 4 25 9t23 9q8 4 16 7.5t15 6.5l73 295h-92l4 18h294l-4 -18h-93l-155 -625h92l-5 -18h-294l5 18h92v0z" />
    <glyph glyph-name="parenright" unicode="&#x427;" horiz-adv-x="661" 
d="M341 18l78 310q-88 -37 -141.5 -51.5t-100.5 -14.5h-1.5h-1.5q-48 0 -77.5 23.5t-29.5 69.5q1 9 2 19t4 21l62 248h-93l5 18h294l-5 -18h-92l-59 -236q-5 -22 -9 -33.5t-5 -20.5v-3.5v-2.5q0 -22 6.5 -36.5t30.5 -20.5q3 -1 5.5 -1.5t4.5 -0.5h4.5h5.5q7 0 13.5 0.5
t12.5 1.5q18 3 42 10t49 16q13 4 25 9t23 9q8 4 16 7.5t15 6.5l73 295h-92l4 18h294l-4 -18h-93l-155 -625h92l-5 -18h-294l5 18h92v0z" />
    <glyph glyph-name="zero" unicode="&#xd6;" horiz-adv-x="764" 
d="M553 18h100l-60 -242h-22q2 12 2.5 28.5t1.5 34.5v16.5v16.5q0 58 -21 84.5t-47 36.5q-16 6 -31 6.5t-25 0.5h-479l4 18h93l155 625h-92l4 18h294l-4 -18h-93l-155 -625h266l156 625h-93l5 18h294l-5 -18h-92l-156 -625v0z" />
    <glyph glyph-name="zero" unicode="&#x426;" horiz-adv-x="764" 
d="M553 18h100l-60 -242h-22q2 12 2.5 28.5t1.5 34.5v16.5v16.5q0 58 -21 84.5t-47 36.5q-16 6 -31 6.5t-25 0.5h-479l4 18h93l155 625h-92l4 18h294l-4 -18h-93l-155 -625h266l156 625h-93l5 18h294l-5 -18h-92l-156 -625v0z" />
    <glyph glyph-name="one" unicode="&#xb9;" horiz-adv-x="1053" 
d="M615 158l86 355q0 2 0.5 4t1.5 4q15 63 38 105.5t86 42.5q37 0 59.5 -20t30.5 -44q3 -7 4 -14t1 -13q0 -5 -0.5 -10.5t-2.5 -10.5q-4 -18 -18 -33.5t-41 -15.5q-28 0 -43.5 15.5t-15.5 37.5q0 5 1 11.5t4 13.5q3 6 9 12.5t16 11.5q1 0 2 0.5t1 1.5q7 3 11 7.5t4 16.5
q0 7 -5 10t-10 4q-4 1 -7.5 1h-5.5h-0.5h-0.5q-46 0 -65 -36t-29 -79q-2 -6 -3 -11.5t-3 -10.5q0 -3 -0.5 -5.5t-1.5 -4.5l-123 -512h-13l-230 560l-103 -428q-17 -72 -44 -101.5t-78 -29.5q-34 0 -52 13t-26 30q-6 12 -8 23.5t-2 16.5q0 26 14.5 48t44.5 22q27 0 43.5 -15
t16.5 -43q0 -4 -0.5 -10t-3.5 -12q-4 -9 -13 -17.5t-28 -10.5q-1 0 -2.5 -0.5t-2.5 -0.5q-4 -1 -6.5 -3t-2.5 -7q0 -1 0.5 -2.5t1.5 -2.5q2 -5 10.5 -8.5t24.5 -3.5q33 0 55 24.5t39 93.5l96 390q1 3 2 9.5t3 13.5q1 5 1.5 9.5t1.5 8.5q1 7 1.5 13.5t0.5 11.5
q0 39 -18.5 47.5t-49.5 10.5q-3 0 -6.5 0.5t-6.5 0.5l4 18h155l201 -503v0zM675 0l11 34h279l-10 -34h-280v0zM734 270q0 77 44.5 118t97.5 48q5 0 10 0.5t10 0.5q56 0 84.5 -39.5t32.5 -87.5q1 -3 1 -7v-8q0 -70 -53.5 -119.5t-118.5 -49.5q-45 0 -76.5 39t-31.5 105v0z
M824 338l-19 -100q0 -2 -0.5 -5t-1.5 -6q-1 -6 -1.5 -12t-0.5 -13v-4.5v-4.5q2 -19 12.5 -34t39.5 -15q26 0 43.5 18.5t24.5 56.5l19 109q2 8 2.5 15.5t0.5 14.5q0 27 -10 40.5t-22 17.5q-4 2 -8 2.5t-8 0.5q-36 0 -50.5 -25t-20.5 -56v0z" />
    <glyph glyph-name="one" unicode="&#x2116;" horiz-adv-x="1053" 
d="M615 158l86 355q0 2 0.5 4t1.5 4q15 63 38 105.5t86 42.5q37 0 59.5 -20t30.5 -44q3 -7 4 -14t1 -13q0 -5 -0.5 -10.5t-2.5 -10.5q-4 -18 -18 -33.5t-41 -15.5q-28 0 -43.5 15.5t-15.5 37.5q0 5 1 11.5t4 13.5q3 6 9 12.5t16 11.5q1 0 2 0.5t1 1.5q7 3 11 7.5t4 16.5
q0 7 -5 10t-10 4q-4 1 -7.5 1h-5.5h-0.5h-0.5q-46 0 -65 -36t-29 -79q-2 -6 -3 -11.5t-3 -10.5q0 -3 -0.5 -5.5t-1.5 -4.5l-123 -512h-13l-230 560l-103 -428q-17 -72 -44 -101.5t-78 -29.5q-34 0 -52 13t-26 30q-6 12 -8 23.5t-2 16.5q0 26 14.5 48t44.5 22q27 0 43.5 -15
t16.5 -43q0 -4 -0.5 -10t-3.5 -12q-4 -9 -13 -17.5t-28 -10.5q-1 0 -2.5 -0.5t-2.5 -0.5q-4 -1 -6.5 -3t-2.5 -7q0 -1 0.5 -2.5t1.5 -2.5q2 -5 10.5 -8.5t24.5 -3.5q33 0 55 24.5t39 93.5l96 390q1 3 2 9.5t3 13.5q1 5 1.5 9.5t1.5 8.5q1 7 1.5 13.5t0.5 11.5
q0 39 -18.5 47.5t-49.5 10.5q-3 0 -6.5 0.5t-6.5 0.5l4 18h155l201 -503v0zM675 0l11 34h279l-10 -34h-280v0zM734 270q0 77 44.5 118t97.5 48q5 0 10 0.5t10 0.5q56 0 84.5 -39.5t32.5 -87.5q1 -3 1 -7v-8q0 -70 -53.5 -119.5t-118.5 -49.5q-45 0 -76.5 39t-31.5 105v0z
M824 338l-19 -100q0 -2 -0.5 -5t-1.5 -6q-1 -6 -1.5 -12t-0.5 -13v-4.5v-4.5q2 -19 12.5 -34t39.5 -15q26 0 43.5 18.5t24.5 56.5l19 109q2 8 2.5 15.5t0.5 14.5q0 27 -10 40.5t-22 17.5q-4 2 -8 2.5t-8 0.5q-36 0 -50.5 -25t-20.5 -56v0z" />
    <glyph glyph-name="quoteleft" unicode="&#xb8;" horiz-adv-x="440" 
d="M125 183l-13 -48q-1 -3 -1.5 -8.5t-1.5 -11.5q0 -6 -0.5 -11.5t-0.5 -8.5q0 -38 23 -64.5t66 -26.5h2.5h3.5q56 2 107.5 37.5t78.5 83.5l13 -6q-7 -11 -17.5 -25t-25.5 -29q-28 -29 -69.5 -52t-98.5 -23q-74 0 -114 51.5t-47 113.5q-1 7 -1.5 13.5t-0.5 13.5q0 87 58 150
t128 89q21 8 41.5 12t39.5 4q7 0 15 -0.5t16 -2.5q32 -6 59.5 -28.5t27.5 -69.5q0 -60 -45 -86t-117 -41l-126 -26v0zM130 199l109 25q7 2 17.5 6t22.5 13q13 11 25 30.5t18 51.5l9 44q1 2 1.5 6t0.5 9v2v2v1.5v1.5q-1 12 -8 22t-29 10q-11 0 -34 -5.5t-48 -28.5
q-20 -18 -38 -49.5t-31 -82.5l-15 -58v0zM374 599q6 20 16 31.5t20 17.5q9 5 18 7t15 2q20 0 29 -8t10 -18v-1.5v-1.5q0 -7 -2 -17.5t-6 -21.5q-8 -18 -23.5 -33t-42.5 -15h-5.5t-5.5 1q-10 1 -18.5 6.5t-8.5 20.5q0 8 1 15.5t3 14.5v0zM193 600q8 23 19 35t22 18
q8 3 15.5 4t13.5 1q15 0 26.5 -5.5t11.5 -23.5q0 -7 -1 -14.5t-4 -15.5q-7 -21 -23.5 -39t-44.5 -18q-20 0 -29 8t-10 18v1.5v1.5q0 8 1 15t3 14v0z" />
    <glyph glyph-name="quoteleft" unicode="&#x451;" horiz-adv-x="440" 
d="M125 183l-13 -48q-1 -3 -1.5 -8.5t-1.5 -11.5q0 -6 -0.5 -11.5t-0.5 -8.5q0 -38 23 -64.5t66 -26.5h2.5h3.5q56 2 107.5 37.5t78.5 83.5l13 -6q-7 -11 -17.5 -25t-25.5 -29q-28 -29 -69.5 -52t-98.5 -23q-74 0 -114 51.5t-47 113.5q-1 7 -1.5 13.5t-0.5 13.5q0 87 58 150
t128 89q21 8 41.5 12t39.5 4q7 0 15 -0.5t16 -2.5q32 -6 59.5 -28.5t27.5 -69.5q0 -60 -45 -86t-117 -41l-126 -26v0zM130 199l109 25q7 2 17.5 6t22.5 13q13 11 25 30.5t18 51.5l9 44q1 2 1.5 6t0.5 9v2v2v1.5v1.5q-1 12 -8 22t-29 10q-11 0 -34 -5.5t-48 -28.5
q-20 -18 -38 -49.5t-31 -82.5l-15 -58v0zM374 599q6 20 16 31.5t20 17.5q9 5 18 7t15 2q20 0 29 -8t10 -18v-1.5v-1.5q0 -7 -2 -17.5t-6 -21.5q-8 -18 -23.5 -33t-42.5 -15h-5.5t-5.5 1q-10 1 -18.5 6.5t-8.5 20.5q0 8 1 15.5t3 14.5v0zM193 600q8 23 19 35t22 18
q8 3 15.5 4t13.5 1q15 0 26.5 -5.5t11.5 -23.5q0 -7 -1 -14.5t-4 -15.5q-7 -21 -23.5 -39t-44.5 -18q-20 0 -29 8t-10 18v1.5v1.5q0 8 1 15t3 14v0z" />
    <glyph glyph-name="five" 
 />
    <glyph glyph-name="Q" 
 />
    <glyph glyph-name="R" unicode="&#xbe;" horiz-adv-x="405" 
d="M212 153l-91 64q-10 7 -17 15t-12 16q-9 17 -10.5 32t-1.5 24q0 11 5 25.5t16 29.5q20 29 60 53.5t102 24.5q48 0 81 -22.5t33 -70.5q0 -19 -8.5 -30t-19.5 -15q-6 -3 -11.5 -4t-9.5 -1q-23 0 -37 12t-14 30q0 6 2.5 12t6.5 11q2 2 4 4.5t4 5.5q4 4 7.5 10t3.5 13v4t-1 5
q-3 7 -13.5 13.5t-38.5 6.5q-31 0 -48.5 -12t-26.5 -27q-5 -9 -7.5 -17.5t-3.5 -14.5q-1 -3 -1 -6v-6v-2.5t1 -2.5v-3v-3q2 -12 7 -21.5t16 -19.5q2 -1 4 -3t5 -4l97 -68q10 -7 17.5 -15.5t11.5 -16.5q10 -17 12 -32t2 -23v-3.5v-2.5q0 -50 -54 -89t-144 -39
q-81 0 -110.5 28.5t-29.5 65.5q0 27 16 41.5t37 14.5q20 0 34.5 -11.5t14.5 -32.5q0 -9 -3 -16.5t-7 -13.5q-1 -1 -2 -2.5t-2 -3.5q-1 -1 -1.5 -2.5t-1.5 -2.5v-0.5v-0.5q-2 -3 -3.5 -5.5t-1.5 -6.5q0 -20 18.5 -28.5t40.5 -9.5h2.5h2.5q34 0 60.5 19.5t37.5 43.5
q3 6 4.5 13t1.5 13q0 19 -8 31.5t-17 20.5q-3 2 -5.5 4t-5.5 4v0z" />
    <glyph glyph-name="R" unicode="&#x455;" horiz-adv-x="405" 
d="M212 153l-91 64q-10 7 -17 15t-12 16q-9 17 -10.5 32t-1.5 24q0 11 5 25.5t16 29.5q20 29 60 53.5t102 24.5q48 0 81 -22.5t33 -70.5q0 -19 -8.5 -30t-19.5 -15q-6 -3 -11.5 -4t-9.5 -1q-23 0 -37 12t-14 30q0 6 2.5 12t6.5 11q2 2 4 4.5t4 5.5q4 4 7.5 10t3.5 13v4t-1 5
q-3 7 -13.5 13.5t-38.5 6.5q-31 0 -48.5 -12t-26.5 -27q-5 -9 -7.5 -17.5t-3.5 -14.5q-1 -3 -1 -6v-6v-2.5t1 -2.5v-3v-3q2 -12 7 -21.5t16 -19.5q2 -1 4 -3t5 -4l97 -68q10 -7 17.5 -15.5t11.5 -16.5q10 -17 12 -32t2 -23v-3.5v-2.5q0 -50 -54 -89t-144 -39
q-81 0 -110.5 28.5t-29.5 65.5q0 27 16 41.5t37 14.5q20 0 34.5 -11.5t14.5 -32.5q0 -9 -3 -16.5t-7 -13.5q-1 -1 -2 -2.5t-2 -3.5q-1 -1 -1.5 -2.5t-1.5 -2.5v-0.5v-0.5q-2 -3 -3.5 -5.5t-1.5 -6.5q0 -20 18.5 -28.5t40.5 -9.5h2.5h2.5q34 0 60.5 19.5t37.5 43.5
q3 6 4.5 13t1.5 13q0 19 -8 31.5t-17 20.5q-3 2 -5.5 4t-5.5 4v0z" />
    <glyph glyph-name="quotedblright" 
 />
    <glyph glyph-name="hyphen" 
 />
    <glyph glyph-name="slash" unicode="&#xfb;" horiz-adv-x="657" 
d="M117 412h-96l4 14h182l-54 -202q21 31 55.5 53t76.5 22q53 0 79.5 -33.5t26.5 -74.5q0 -76 -69.5 -138t-152.5 -63h-1.5h-1.5q-54 0 -88.5 36.5t-34.5 89.5q0 5 1.5 13.5t3.5 17.5q0 2 0.5 5t1.5 6q1 6 2.5 11t2.5 8l62 235v0zM282 131l12 46q1 5 2.5 11.5t2.5 12.5
q1 8 2 16.5t1 14.5q0 18 -7 27t-15 12q-7 4 -13 4.5t-8 0.5q-14 0 -44.5 -13t-67.5 -78q-3 -4 -6 -12t-6 -18q-2 -8 -4.5 -16.5t-4.5 -17.5q-5 -19 -8 -36.5t-3 -25.5q0 -4 1 -9.5t2 -10.5q5 -14 18 -25t40 -11q35 0 60.5 24.5t45.5 103.5v0zM511 426h90l-97 -367
q0 -1 -0.5 -2.5t-0.5 -2.5l-1.5 -3t-0.5 -3v-2v-2v-2v-1v-2v-2t0.5 -3t0.5 -4q2 -4 6.5 -7.5t12.5 -3.5t18 6.5t23 23.5q2 3 4.5 6t4.5 6q5 7 10 14.5t10 14.5q7 12 13.5 23.5t10.5 20.5l14 -7q-15 -29 -28.5 -51.5t-26.5 -38.5q-20 -25 -42 -36t-49 -11q-31 0 -48 18.5
t-17 47.5q0 13 3 27t8 33l82 310v0z" />
    <glyph glyph-name="slash" unicode="&#x44b;" horiz-adv-x="657" 
d="M117 412h-96l4 14h182l-54 -202q21 31 55.5 53t76.5 22q53 0 79.5 -33.5t26.5 -74.5q0 -76 -69.5 -138t-152.5 -63h-1.5h-1.5q-54 0 -88.5 36.5t-34.5 89.5q0 5 1.5 13.5t3.5 17.5q0 2 0.5 5t1.5 6q1 6 2.5 11t2.5 8l62 235v0zM282 131l12 46q1 5 2.5 11.5t2.5 12.5
q1 8 2 16.5t1 14.5q0 18 -7 27t-15 12q-7 4 -13 4.5t-8 0.5q-14 0 -44.5 -13t-67.5 -78q-3 -4 -6 -12t-6 -18q-2 -8 -4.5 -16.5t-4.5 -17.5q-5 -19 -8 -36.5t-3 -25.5q0 -4 1 -9.5t2 -10.5q5 -14 18 -25t40 -11q35 0 60.5 24.5t45.5 103.5v0zM511 426h90l-97 -367
q0 -1 -0.5 -2.5t-0.5 -2.5l-1.5 -3t-0.5 -3v-2v-2v-2v-1v-2v-2t0.5 -3t0.5 -4q2 -4 6.5 -7.5t12.5 -3.5t18 6.5t23 23.5q2 3 4.5 6t4.5 6q5 7 10 14.5t10 14.5q7 12 13.5 23.5t10.5 20.5l14 -7q-15 -29 -28.5 -51.5t-26.5 -38.5q-20 -25 -42 -36t-49 -11q-31 0 -48 18.5
t-17 47.5q0 13 3 27t8 33l82 310v0z" />
    <glyph glyph-name="period" unicode="&#xfd;" horiz-adv-x="438" 
d="M75 298l34 139h16q3 -8 9 -13t12 -7h2h2q5 0 11.5 1.5t13.5 5.5q2 1 4.5 2t4.5 3q8 3 19 5.5t28 2.5q66 0 115.5 -50t49.5 -131q0 -103 -80 -184.5t-183 -81.5h-7.5t-7.5 1q-42 3 -76.5 28t-34.5 73q0 36 21 53t49 17q25 0 40 -17.5t15 -46.5q0 -14 -5.5 -24t-17.5 -18
q-4 -3 -8 -4.5t-8 -3.5q-5 -3 -8 -6t-3 -9q0 -18 16 -24t36 -6q47 0 77 34.5t47 75.5q6 14 10.5 28t7.5 27l14 54h-165l3 14h165l8 33q1 4 2 7.5t1 6.5q2 12 3.5 24.5t1.5 30.5q0 35 -22 59.5t-59 24.5q-44 0 -76 -31.5t-50 -69.5q-3 -6 -5.5 -11.5t-4.5 -11.5h-17v0z" />
    <glyph glyph-name="period" unicode="&#x44d;" horiz-adv-x="438" 
d="M75 298l34 139h16q3 -8 9 -13t12 -7h2h2q5 0 11.5 1.5t13.5 5.5q2 1 4.5 2t4.5 3q8 3 19 5.5t28 2.5q66 0 115.5 -50t49.5 -131q0 -103 -80 -184.5t-183 -81.5h-7.5t-7.5 1q-42 3 -76.5 28t-34.5 73q0 36 21 53t49 17q25 0 40 -17.5t15 -46.5q0 -14 -5.5 -24t-17.5 -18
q-4 -3 -8 -4.5t-8 -3.5q-5 -3 -8 -6t-3 -9q0 -18 16 -24t36 -6q47 0 77 34.5t47 75.5q6 14 10.5 28t7.5 27l14 54h-165l3 14h165l8 33q1 4 2 7.5t1 6.5q2 12 3.5 24.5t1.5 30.5q0 35 -22 59.5t-59 24.5q-44 0 -76 -31.5t-50 -69.5q-3 -6 -5.5 -11.5t-4.5 -11.5h-17v0z" />
    <glyph glyph-name="space" unicode="&#xff;" horiz-adv-x="485" 
d="M281 207h-29q-32 0 -59 -14.5t-49 -88.5q-3 -9 -6.5 -20.5t-9.5 -23.5q-13 -27 -38 -48.5t-71 -21.5q-5 0 -12 1t-15 4q-11 4 -20.5 13t-12.5 28l11 8q1 -11 6 -20.5t11 -12.5q1 0 2 -0.5t2 -0.5q10 0 20 18.5t19 42.5q1 3 2 5.5t2 4.5q3 7 5.5 14t5.5 14q4 9 10.5 19.5
t15.5 21.5q17 19 48 37t84 28v5q-60 3 -92 35.5t-32 71.5q0 58 55 77t121 21q9 1 17.5 1h17.5h138l-97 -367q0 -1 -0.5 -3t-0.5 -4q0 -1 -0.5 -2l-0.5 -1q0 -4 -0.5 -7.5t-0.5 -4.5v-2t1 -2q1 -5 6 -9.5t13 -4.5q5 0 10.5 2t10.5 6q12 10 23 25t22 31q8 14 15.5 27.5
t13.5 23.5l14 -7q-22 -42 -40 -68.5t-36 -42.5q-16 -15 -33.5 -20.5t-37.5 -5.5q-31 0 -47.5 18.5t-16.5 47.5q0 13 3 27t8 33l24 91v0zM285 221l50 191h-53q-9 0 -21.5 -1t-25.5 -6q-17 -6 -32.5 -22t-24.5 -47l-9 -33l-2 -10t-1 -10q0 -28 20.5 -45t52.5 -17h46v0z" />
    <glyph glyph-name="space" unicode="&#x44f;" horiz-adv-x="485" 
d="M281 207h-29q-32 0 -59 -14.5t-49 -88.5q-3 -9 -6.5 -20.5t-9.5 -23.5q-13 -27 -38 -48.5t-71 -21.5q-5 0 -12 1t-15 4q-11 4 -20.5 13t-12.5 28l11 8q1 -11 6 -20.5t11 -12.5q1 0 2 -0.5t2 -0.5q10 0 20 18.5t19 42.5q1 3 2 5.5t2 4.5q3 7 5.5 14t5.5 14q4 9 10.5 19.5
t15.5 21.5q17 19 48 37t84 28v5q-60 3 -92 35.5t-32 71.5q0 58 55 77t121 21q9 1 17.5 1h17.5h138l-97 -367q0 -1 -0.5 -3t-0.5 -4q0 -1 -0.5 -2l-0.5 -1q0 -4 -0.5 -7.5t-0.5 -4.5v-2t1 -2q1 -5 6 -9.5t13 -4.5q5 0 10.5 2t10.5 6q12 10 23 25t22 31q8 14 15.5 27.5
t13.5 23.5l14 -7q-22 -42 -40 -68.5t-36 -42.5q-16 -15 -33.5 -20.5t-37.5 -5.5q-31 0 -47.5 18.5t-16.5 47.5q0 13 3 27t8 33l24 91v0zM285 221l50 191h-53q-9 0 -21.5 -1t-25.5 -6q-17 -6 -32.5 -22t-24.5 -47l-9 -33l-2 -10t-1 -10q0 -28 20.5 -45t52.5 -17h46v0z" />
    <glyph glyph-name="Z" unicode="&#xa1;" horiz-adv-x="610" 
d="M369 213l174 277q6 10 11.5 19.5t9.5 18.5q6 15 9.5 30t3.5 33q0 25 -17.5 38.5t-43.5 13.5h-12l4 18h228l-3 -18q-23 0 -41.5 -9t-32.5 -20q-5 -4 -9.5 -8t-7.5 -8l-4.5 -4.5l-4.5 -4.5q-5 -5 -9.5 -10.5t-8.5 -11.5q-10 -14 -21.5 -31.5t-27.5 -42.5l-254 -406
q-9 -14 -18 -25.5t-19 -20.5q-34 -35 -65.5 -41.5t-46.5 -6.5q-57 0 -83.5 31t-27.5 68v1.5v1.5q0 31 22.5 51t59.5 20q32 0 45.5 -16t17.5 -35q0 -5 0.5 -9.5t0.5 -8.5q0 -19 -9 -31t-24 -20l-4 -2l-4 -2q-4 -3 -7.5 -6t-5.5 -7q0 -1 -0.5 -2.5t-0.5 -2.5t0.5 -2.5
t0.5 -2.5q2 -4 9 -7t18 -3q41 0 70.5 26.5t52.5 60.5l-182 547h-70l4 18h252l-3 -18h-72l146 -430v0zM599 835l17 -4q-21 -36 -57.5 -68.5t-75.5 -50.5q-16 -7 -31.5 -11t-30.5 -4q-37 0 -65 22t-28 59q0 26 16.5 44t43.5 18q26 0 40.5 -13.5t18.5 -29.5q1 -4 1.5 -7.5
t0.5 -6.5t-0.5 -6t-1.5 -6q-1 -7 -4.5 -13t-8.5 -11l-1.5 -1.5l-1.5 -1.5t-2 -2.5t-2 -3.5q0 -1 -0.5 -2.5t-0.5 -2.5t0.5 -2.5t0.5 -2.5q2 -5 6 -7t9 -2q15 0 32.5 8t35.5 20q18 13 35 28.5t31 31.5q7 7 12.5 14t10.5 14v0z" />
    <glyph glyph-name="Z" unicode="&#x40e;" horiz-adv-x="610" 
d="M369 213l174 277q6 10 11.5 19.5t9.5 18.5q6 15 9.5 30t3.5 33q0 25 -17.5 38.5t-43.5 13.5h-12l4 18h228l-3 -18q-23 0 -41.5 -9t-32.5 -20q-5 -4 -9.5 -8t-7.5 -8l-4.5 -4.5l-4.5 -4.5q-5 -5 -9.5 -10.5t-8.5 -11.5q-10 -14 -21.5 -31.5t-27.5 -42.5l-254 -406
q-9 -14 -18 -25.5t-19 -20.5q-34 -35 -65.5 -41.5t-46.5 -6.5q-57 0 -83.5 31t-27.5 68v1.5v1.5q0 31 22.5 51t59.5 20q32 0 45.5 -16t17.5 -35q0 -5 0.5 -9.5t0.5 -8.5q0 -19 -9 -31t-24 -20l-4 -2l-4 -2q-4 -3 -7.5 -6t-5.5 -7q0 -1 -0.5 -2.5t-0.5 -2.5t0.5 -2.5
t0.5 -2.5q2 -4 9 -7t18 -3q41 0 70.5 26.5t52.5 60.5l-182 547h-70l4 18h252l-3 -18h-72l146 -430v0zM599 835l17 -4q-21 -36 -57.5 -68.5t-75.5 -50.5q-16 -7 -31.5 -11t-30.5 -4q-37 0 -65 22t-28 59q0 26 16.5 44t43.5 18q26 0 40.5 -13.5t18.5 -29.5q1 -4 1.5 -7.5
t0.5 -6.5t-0.5 -6t-1.5 -6q-1 -7 -4.5 -13t-8.5 -11l-1.5 -1.5l-1.5 -1.5t-2 -2.5t-2 -3.5q0 -1 -0.5 -2.5t-0.5 -2.5t0.5 -2.5t0.5 -2.5q2 -5 6 -7t9 -2q15 0 32.5 8t35.5 20q18 13 35 28.5t31 31.5q7 7 12.5 14t10.5 14v0z" />
    <glyph glyph-name="K" unicode="&#xe1;" horiz-adv-x="495" 
d="M521 683h16q-2 -9 -6 -26t-12 -36q-10 -26 -30.5 -47.5t-54.5 -21.5q-16 0 -32.5 0.5t-32.5 3.5q-36 6 -60.5 10t-41.5 4q-56 0 -93 -47t-57 -103q-10 -27 -16 -52t-9 -46h4q18 30 39 50.5t43 33.5q38 22 72 26.5t50 4.5q74 0 116 -55t42 -127q0 -10 -1 -21t-3 -21
q-18 -84 -91 -153.5t-166 -69.5q-76 0 -122.5 58t-46.5 140q0 38 10 86t28 98q38 102 104 187.5t146 85.5q12 0 24 -0.5t24 -2.5q3 0 6 -0.5t5 -1.5q12 -2 23.5 -3.5t22.5 -1.5q9 0 23 1t29 6q13 5 26 14.5t22 26.5v0zM146 273l-33 -121q-1 -5 -2.5 -11.5t-1.5 -13.5
q-1 -6 -1.5 -11.5t-0.5 -9.5q0 -48 22.5 -75.5t54.5 -27.5q14 0 31 2.5t35 12.5q23 12 44.5 41t36.5 84l30 111q1 2 1.5 4t0.5 4q2 6 3 13t3 15l2 18t1 16q0 47 -23 73t-55 26q-14 0 -32.5 -4t-37.5 -17q-22 -15 -42.5 -45.5t-35.5 -83.5v0z" />
    <glyph glyph-name="K" unicode="&#x431;" horiz-adv-x="495" 
d="M521 683h16q-2 -9 -6 -26t-12 -36q-10 -26 -30.5 -47.5t-54.5 -21.5q-16 0 -32.5 0.5t-32.5 3.5q-36 6 -60.5 10t-41.5 4q-56 0 -93 -47t-57 -103q-10 -27 -16 -52t-9 -46h4q18 30 39 50.5t43 33.5q38 22 72 26.5t50 4.5q74 0 116 -55t42 -127q0 -10 -1 -21t-3 -21
q-18 -84 -91 -153.5t-166 -69.5q-76 0 -122.5 58t-46.5 140q0 38 10 86t28 98q38 102 104 187.5t146 85.5q12 0 24 -0.5t24 -2.5q3 0 6 -0.5t5 -1.5q12 -2 23.5 -3.5t22.5 -1.5q9 0 23 1t29 6q13 5 26 14.5t22 26.5v0zM146 273l-33 -121q-1 -5 -2.5 -11.5t-1.5 -13.5
q-1 -6 -1.5 -11.5t-0.5 -9.5q0 -48 22.5 -75.5t54.5 -27.5q14 0 31 2.5t35 12.5q23 12 44.5 41t36.5 84l30 111q1 2 1.5 4t0.5 4q2 6 3 13t3 15l2 18t1 16q0 47 -23 73t-55 26q-14 0 -32.5 -4t-37.5 -17q-22 -15 -42.5 -45.5t-35.5 -83.5v0z" />
    <glyph glyph-name="L" unicode="&#xe9;" horiz-adv-x="535" 
d="M478 426l-97 -367q0 -1 -0.5 -3t-0.5 -4q0 -1 -0.5 -2l-0.5 -1q0 -4 -0.5 -7.5t-0.5 -4.5v-2t1 -2q1 -5 6 -9.5t13 -4.5q5 0 10.5 2t10.5 6q12 10 23 25t22 31q8 14 15.5 27.5t13.5 23.5l14 -7q-22 -42 -40 -68.5t-36 -42.5q-16 -15 -33.5 -20.5t-37.5 -5.5
q-31 0 -47.5 18.5t-16.5 47.5q0 5 0.5 10.5t1.5 11.5t2.5 12t2.5 12q1 4 2 7.5t2 6.5l5 17h-3q-28 -41 -66 -76.5t-78 -53.5q-15 -6 -30 -9.5t-29 -3.5q-37 0 -58.5 20.5t-21.5 70.5q0 5 0.5 10.5t1.5 10.5q1 6 2.5 11.5t2.5 11.5q0 2 1 4t1 4l74 279h-95l3 14h182l-82 -319
l-2 -12t-2 -11q-1 -6 -1 -12v-12q0 -2 1 -6.5t3 -9.5q4 -7 11.5 -13t21.5 -6q16 0 34 8.5t37 23.5q25 20 49.5 48t42.5 58q4 6 7.5 12t6.5 12l63 239h89v0zM464 636l10 -12q-9 -10 -22 -23t-29 -27q-26 -23 -57.5 -43t-63.5 -27q-7 -1 -13.5 -2t-13.5 -1q-37 0 -63.5 21.5
t-26.5 57.5q0 30 19.5 45.5t44.5 15.5q27 0 40.5 -15t16.5 -33v-3v-4q0 -14 -4.5 -23t-11.5 -14l-5 -2.5t-6 -1.5q-6 -2 -11 -4.5t-5 -9.5q0 -1 0.5 -2.5t0.5 -2.5q2 -4 6 -6.5t12 -2.5q23 0 60 19.5t76 54.5q12 10 23.5 21.5t22.5 23.5v0z" />
    <glyph glyph-name="L" unicode="&#x439;" horiz-adv-x="535" 
d="M478 426l-97 -367q0 -1 -0.5 -3t-0.5 -4q0 -1 -0.5 -2l-0.5 -1q0 -4 -0.5 -7.5t-0.5 -4.5v-2t1 -2q1 -5 6 -9.5t13 -4.5q5 0 10.5 2t10.5 6q12 10 23 25t22 31q8 14 15.5 27.5t13.5 23.5l14 -7q-22 -42 -40 -68.5t-36 -42.5q-16 -15 -33.5 -20.5t-37.5 -5.5
q-31 0 -47.5 18.5t-16.5 47.5q0 5 0.5 10.5t1.5 11.5t2.5 12t2.5 12q1 4 2 7.5t2 6.5l5 17h-3q-28 -41 -66 -76.5t-78 -53.5q-15 -6 -30 -9.5t-29 -3.5q-37 0 -58.5 20.5t-21.5 70.5q0 5 0.5 10.5t1.5 10.5q1 6 2.5 11.5t2.5 11.5q0 2 1 4t1 4l74 279h-95l3 14h182l-82 -319
l-2 -12t-2 -11q-1 -6 -1 -12v-12q0 -2 1 -6.5t3 -9.5q4 -7 11.5 -13t21.5 -6q16 0 34 8.5t37 23.5q25 20 49.5 48t42.5 58q4 6 7.5 12t6.5 12l63 239h89v0zM464 636l10 -12q-9 -10 -22 -23t-29 -27q-26 -23 -57.5 -43t-63.5 -27q-7 -1 -13.5 -2t-13.5 -1q-37 0 -63.5 21.5
t-26.5 57.5q0 30 19.5 45.5t44.5 15.5q27 0 40.5 -15t16.5 -33v-3v-4q0 -14 -4.5 -23t-11.5 -14l-5 -2.5t-6 -1.5q-6 -2 -11 -4.5t-5 -9.5q0 -1 0.5 -2.5t0.5 -2.5q2 -4 6 -6.5t12 -2.5q23 0 60 19.5t76 54.5q12 10 23.5 21.5t22.5 23.5v0z" />
    <glyph glyph-name="exclam" unicode="&#xf0;" horiz-adv-x="522" 
d="M189 341h4q1 3 2 5.5t2 4.5q15 32 42.5 59t79.5 27q62 0 111.5 -54.5t49.5 -151.5t-70.5 -169t-159.5 -72q-55 0 -82 34.5t-28 77.5h-6l-71 -298h-91l151 608h-96l3 14h182l-23 -85v0zM180 253l-16 -69q-1 -4 -1.5 -7t-1.5 -7q-2 -10 -3.5 -21t-1.5 -27q0 -47 13.5 -71.5
t29.5 -34.5q13 -9 25 -11t16 -2q51 0 76.5 42.5t37.5 93.5l2 8l2 8l23 107q3 14 4.5 26.5t1.5 23.5q-1 54 -25.5 82.5t-55.5 28.5q-44 0 -70 -35.5t-40 -77.5q-5 -15 -9 -29.5t-7 -27.5v0z" />
    <glyph glyph-name="exclam" unicode="&#x440;" horiz-adv-x="522" 
d="M189 341h4q1 3 2 5.5t2 4.5q15 32 42.5 59t79.5 27q62 0 111.5 -54.5t49.5 -151.5t-70.5 -169t-159.5 -72q-55 0 -82 34.5t-28 77.5h-6l-71 -298h-91l151 608h-96l3 14h182l-23 -85v0zM180 253l-16 -69q-1 -4 -1.5 -7t-1.5 -7q-2 -10 -3.5 -21t-1.5 -27q0 -47 13.5 -71.5
t29.5 -34.5q13 -9 25 -11t16 -2q51 0 76.5 42.5t37.5 93.5l2 8l2 8l23 107q3 14 4.5 26.5t1.5 23.5q-1 54 -25.5 82.5t-55.5 28.5q-44 0 -70 -35.5t-40 -77.5q-5 -15 -9 -29.5t-7 -27.5v0z" />
    <glyph glyph-name="quotedblleft" unicode="&#xf1;" horiz-adv-x="462" 
d="M374 148l14 -8q-12 -21 -23.5 -38.5t-23.5 -32.5q-34 -44 -70 -61.5t-77 -17.5q-64 0 -115 43t-51 132q0 110 75 185t165 85q6 1 13 1.5t13 0.5q62 0 93.5 -28t32.5 -62v-1.5v-1.5q0 -5 -0.5 -10.5t-2.5 -10.5q-4 -19 -19 -35t-42 -16q-28 0 -41.5 14t-17.5 31
q0 3 -0.5 7t-0.5 7q0 12 5 19.5t12 13.5l0.5 0.5l1.5 1.5q2 1 3.5 2.5l3.5 3.5q5 3 8.5 8t3.5 12q0 3 -0.5 6t-1.5 7q-3 7 -11.5 12.5t-28.5 5.5q-6 0 -12 -0.5t-12 -2.5q-35 -7 -66.5 -42.5t-50.5 -115.5l-25 -96q-4 -12 -6.5 -26t-2.5 -33q0 -49 23.5 -76.5t63.5 -27.5
q20 0 56 13.5t75 65.5q10 14 19.5 30t19.5 36v0z" />
    <glyph glyph-name="quotedblleft" unicode="&#x441;" horiz-adv-x="462" 
d="M374 148l14 -8q-12 -21 -23.5 -38.5t-23.5 -32.5q-34 -44 -70 -61.5t-77 -17.5q-64 0 -115 43t-51 132q0 110 75 185t165 85q6 1 13 1.5t13 0.5q62 0 93.5 -28t32.5 -62v-1.5v-1.5q0 -5 -0.5 -10.5t-2.5 -10.5q-4 -19 -19 -35t-42 -16q-28 0 -41.5 14t-17.5 31
q0 3 -0.5 7t-0.5 7q0 12 5 19.5t12 13.5l0.5 0.5l1.5 1.5q2 1 3.5 2.5l3.5 3.5q5 3 8.5 8t3.5 12q0 3 -0.5 6t-1.5 7q-3 7 -11.5 12.5t-28.5 5.5q-6 0 -12 -0.5t-12 -2.5q-35 -7 -66.5 -42.5t-50.5 -115.5l-25 -96q-4 -12 -6.5 -26t-2.5 -33q0 -49 23.5 -76.5t63.5 -27.5
q20 0 56 13.5t75 65.5q10 14 19.5 30t19.5 36v0z" />
    <glyph glyph-name="four" unicode="&#x2018;" horiz-adv-x="421" 
d="M313 725l10 -15q-11 -7 -20.5 -14.5t-18.5 -14.5q-37 -32 -56.5 -60t-19.5 -41v-0.5v-0.5v-3.5t1 -5.5t4 -6.5t9 -3.5h2t2 1h1h2q2 0 3.5 0.5t3.5 0.5h3h3q17 0 26 -10t13 -21q2 -6 2.5 -11.5t0.5 -9.5v-4.5t-1 -4.5q-2 -18 -15.5 -32.5t-41.5 -14.5q-31 0 -43 18t-14 39
q-1 5 -1 9.5v8.5q0 10 2 21t6 21q14 38 46.5 74.5t68.5 64.5q6 4 11.5 7.5t10.5 7.5v0z" />
    <glyph glyph-name="period" unicode="&#xf5;" horiz-adv-x="580" 
d="M325 257l26 -169v-0.5v-1.5q1 -6 2 -12.5t3 -13.5q3 -17 12.5 -31t31.5 -14q26 0 50.5 22.5t45.5 48.5q9 13 18 24.5t16 21.5l10 -8q-37 -58 -80 -96t-99 -38q-40 0 -61 16.5t-30 37.5q-6 13 -8.5 24.5t-3.5 19.5l-12 82q-20 -30 -32 -46.5t-22 -29.5q-5 -6 -9.5 -12
t-9.5 -13q-4 -5 -7.5 -10t-7.5 -10q-16 -22 -37.5 -40.5t-53.5 -18.5q-36 0 -56.5 23.5t-23.5 52.5v4v4q0 26 18.5 45.5t45.5 19.5h4.5t4.5 -1q17 -3 31 -15.5t14 -32.5t-6.5 -31t-14.5 -17q-3 -3 -6 -5.5t-6 -4.5q-1 -1 -2 -1.5t-1 -1.5q-3 -3 -3 -6.5t1 -5.5v-1v-1
q0 -3 3.5 -5t8.5 -3h2.5h2.5q23 0 55.5 42.5t102.5 139.5l-22 143q0 2 -0.5 4.5t-0.5 4.5q-1 4 -1.5 7.5t-0.5 7.5q-4 20 -11 37t-25 17h-2.5h-3.5q-12 -2 -23.5 -10.5t-21.5 -18.5q-4 -4 -7.5 -8t-6.5 -8q-5 -6 -8.5 -10t-6.5 -7l-0.5 -0.5l-0.5 -0.5q-2 -3 -5 -6l-8 -8
l-10 8q25 30 45 50t39 31q13 8 27 11.5t30 3.5q38 0 63.5 -20t30.5 -61l10 -80q58 101 97.5 131t64.5 30q33 0 57.5 -20.5t24.5 -46.5q0 -28 -15 -46t-38 -18t-41 15t-18 37q0 3 0.5 5.5t0.5 5.5q3 9 8.5 18t11.5 13q2 1 3 2t2 1l4 2t2 5v2.5t-1 2.5q0 2 -2 4t-7 2
q-13 0 -49 -24t-102 -140v0z" />
    <glyph glyph-name="period" unicode="&#x445;" horiz-adv-x="580" 
d="M325 257l26 -169v-0.5v-1.5q1 -6 2 -12.5t3 -13.5q3 -17 12.5 -31t31.5 -14q26 0 50.5 22.5t45.5 48.5q9 13 18 24.5t16 21.5l10 -8q-37 -58 -80 -96t-99 -38q-40 0 -61 16.5t-30 37.5q-6 13 -8.5 24.5t-3.5 19.5l-12 82q-20 -30 -32 -46.5t-22 -29.5q-5 -6 -9.5 -12
t-9.5 -13q-4 -5 -7.5 -10t-7.5 -10q-16 -22 -37.5 -40.5t-53.5 -18.5q-36 0 -56.5 23.5t-23.5 52.5v4v4q0 26 18.5 45.5t45.5 19.5h4.5t4.5 -1q17 -3 31 -15.5t14 -32.5t-6.5 -31t-14.5 -17q-3 -3 -6 -5.5t-6 -4.5q-1 -1 -2 -1.5t-1 -1.5q-3 -3 -3 -6.5t1 -5.5v-1v-1
q0 -3 3.5 -5t8.5 -3h2.5h2.5q23 0 55.5 42.5t102.5 139.5l-22 143q0 2 -0.5 4.5t-0.5 4.5q-1 4 -1.5 7.5t-0.5 7.5q-4 20 -11 37t-25 17h-2.5h-3.5q-12 -2 -23.5 -10.5t-21.5 -18.5q-4 -4 -7.5 -8t-6.5 -8q-5 -6 -8.5 -10t-6.5 -7l-0.5 -0.5l-0.5 -0.5q-2 -3 -5 -6l-8 -8
l-10 8q25 30 45 50t39 31q13 8 27 11.5t30 3.5q38 0 63.5 -20t30.5 -61l10 -80q58 101 97.5 131t64.5 30q33 0 57.5 -20.5t24.5 -46.5q0 -28 -15 -46t-38 -18t-41 15t-18 37q0 3 0.5 5.5t0.5 5.5q3 9 8.5 18t11.5 13q2 1 3 2t2 1l4 2t2 5v2.5t-1 2.5q0 2 -2 4t-7 2
q-13 0 -49 -24t-102 -140v0z" />
    <glyph glyph-name="at" unicode="&#xb1;" horiz-adv-x="672" 
d="M70 58v41h532v-41h-532v0zM358 175h-42v151h-246v43h246v194h42v-194h244v-43h-244v-151v0z" />
    <glyph glyph-name="P" unicode="&#xb2;" horiz-adv-x="389" 
d="M224 643h-92l5 18h294l-4 -18h-93l-156 -625h92l-4 -18h-294l4 18h93l155 625v0z" />
    <glyph glyph-name="P" unicode="&#x406;" horiz-adv-x="389" 
d="M224 643h-92l5 18h294l-4 -18h-93l-156 -625h92l-4 -18h-294l4 18h93l155 625v0z" />
    <glyph glyph-name="B" unicode="&#x201d;" horiz-adv-x="630" 
d="M178 398l-10 15q53 35 74 62.5t31 43.5q2 3 3.5 5.5t2.5 4.5q2 3 3 6t1 8v2v2v1v2v1.5v1.5q-1 4 -3 6t-5 3q-2 0 -3.5 0.5t-2.5 0.5h-3.5t-2.5 -1h-0.5h-0.5q-2 0 -4.5 -0.5t-7.5 -0.5q-16 0 -29 11.5t-13 40.5q0 30 17.5 43t39.5 13q4 0 9 -0.5t10 -2.5q15 -5 27 -20.5
t12 -51.5q0 -11 -2.5 -23t-7.5 -23q-15 -39 -48 -75.5t-69 -62.5q-5 -3 -9.5 -6t-8.5 -6v0zM387 398l-10 15q2 1 3.5 2t2.5 2q19 14 37 30t33 32q16 17 26 33.5t13 30.5q0 1 0.5 2.5t0.5 2.5t-0.5 2.5t-0.5 2.5t-0.5 2t-1.5 2q-2 2 -5 4t-7 2q-2 0 -4 -0.5t-4 -0.5t-5 -0.5
t-7 -0.5q-17 0 -26 10t-13 21q-2 6 -2.5 11.5t-0.5 9.5q0 24 15.5 40t42.5 16q29 0 41 -16.5t15 -35.5q1 -6 1.5 -12t0.5 -11q0 -9 -1.5 -17.5t-3.5 -16.5q-13 -42 -48 -81.5t-74 -68.5q-5 -3 -9.5 -6t-8.5 -6v0z" />
    <glyph glyph-name="D" horiz-adv-x="691" 
d="M612 100l16 -7q-12 -18 -23.5 -33t-23.5 -26q-21 -21 -42 -31t-45 -10q-36 0 -61.5 22t-24.5 62q0 6 1 13l2 14l29 121q2 8 2.5 14.5t0.5 13.5q0 36 -22.5 62.5t-69.5 26.5h-92l-81 -324h92l-4 -18h-294l4 18h93l155 625h-92l4 18h294l-4 -18h-93l-70 -282h96v0h1
q5 0 19.5 1t31.5 8q14 6 27.5 18.5t20.5 34.5l39 128q17 57 43.5 87.5t72.5 30.5q42 0 66.5 -22t24.5 -59t-19.5 -59t-45.5 -22h-1.5h-1.5q-25 1 -45.5 16t-20.5 53q0 5 1.5 8.5t2.5 7.5q1 3 2.5 5.5t2.5 4.5q2 3 4 4.5t4 3.5t3 4t1 5v2v2q-1 6 -4 11t-13 5q-17 0 -27.5 -17
t-17.5 -38q-4 -11 -7 -21.5t-6 -18.5l-41 -126q-2 -5 -3.5 -10t-3.5 -10q-7 -15 -19 -27.5t-36 -18.5l-1 -3q75 -7 110 -35t35 -84q0 -13 -2 -29t-6 -33l-26 -111q0 -1 -0.5 -2.5t-0.5 -3.5t-0.5 -4t-0.5 -4v-1.5v-0.5q1 -5 4 -9t10 -4t15.5 4.5t16.5 11.5q12 10 23.5 25
t20.5 31v0z" />
    <glyph glyph-name="D" unicode="&#x40c;" horiz-adv-x="691" 
d="M612 100l16 -7q-12 -18 -23.5 -33t-23.5 -26q-21 -21 -42 -31t-45 -10q-36 0 -61.5 22t-24.5 62q0 6 1 13l2 14l29 121q2 8 2.5 14.5t0.5 13.5q0 36 -22.5 62.5t-69.5 26.5h-92l-81 -324h92l-4 -18h-294l4 18h93l155 625h-92l4 18h294l-4 -18h-93l-70 -282h96v0h1
q5 0 19.5 1t31.5 8q14 6 27.5 18.5t20.5 34.5l39 128q17 57 43.5 87.5t72.5 30.5q42 0 66.5 -22t24.5 -59t-19.5 -59t-45.5 -22h-1.5h-1.5q-25 1 -45.5 16t-20.5 53q0 5 1.5 8.5t2.5 7.5q1 3 2.5 5.5t2.5 4.5q2 3 4 4.5t4 3.5t3 4t1 5v2v2q-1 6 -4 11t-13 5q-17 0 -27.5 -17
t-17.5 -38q-4 -11 -7 -21.5t-6 -18.5l-41 -126q-2 -5 -3.5 -10t-3.5 -10q-7 -15 -19 -27.5t-36 -18.5l-1 -3q75 -7 110 -35t35 -84q0 -13 -2 -29t-6 -33l-26 -111q0 -1 -0.5 -2.5t-0.5 -3.5t-0.5 -4t-0.5 -4v-1.5v-0.5q1 -5 4 -9t10 -4t15.5 4.5t16.5 11.5q12 10 23.5 25
t20.5 31v0z" />
    <glyph glyph-name="space" 
 />
    <glyph glyph-name="E" 
 />
    <glyph glyph-name="C" unicode="&#xef;" horiz-adv-x="542" 
d="M179 293h3q11 14 22 27t22 25q43 46 85.5 69t78.5 23q6 0 12.5 -1t13.5 -3q19 -6 35 -23.5t16 -53.5q0 -16 -1.5 -26.5t-3.5 -20.5q-1 -4 -2.5 -8t-2.5 -8l-69 -234q0 -1 -0.5 -2.5t-0.5 -3.5q0 -1 -0.5 -2.5t-0.5 -2.5q0 -4 -0.5 -7t-0.5 -4v-2t1 -2q1 -5 6 -9.5
t13 -4.5q10 0 16.5 5t13.5 12l0.5 0.5l1.5 1.5q3 4 6.5 8t6.5 8q10 12 19.5 27t17.5 30q3 6 6 11.5t6 11.5l15 -7q-22 -42 -40 -68.5t-36 -42.5q-16 -15 -33.5 -20.5t-37.5 -5.5q-31 0 -47.5 18.5t-16.5 47.5q0 5 0.5 10.5t1.5 11.5t2.5 12t2.5 12q1 4 2 7.5t2 6.5l60 203
q1 2 1.5 3.5t0.5 3.5q2 4 2.5 9t1.5 14v5v6v1.5v1.5v0.5v1.5q0 2 -0.5 4t-1.5 4q-3 11 -11.5 19.5t-24.5 8.5q-13 0 -33.5 -8t-49.5 -34q-14 -12 -25 -24t-21 -23q-12 -15 -22 -30.5t-20 -32.5q-2 -2 -3 -4.5t-3 -5.5l-62 -239h-89l109 412h-96l4 14h182l-34 -133v0z" />
    <glyph glyph-name="C" unicode="&#x43f;" horiz-adv-x="542" 
d="M179 293h3q11 14 22 27t22 25q43 46 85.5 69t78.5 23q6 0 12.5 -1t13.5 -3q19 -6 35 -23.5t16 -53.5q0 -16 -1.5 -26.5t-3.5 -20.5q-1 -4 -2.5 -8t-2.5 -8l-69 -234q0 -1 -0.5 -2.5t-0.5 -3.5q0 -1 -0.5 -2.5t-0.5 -2.5q0 -4 -0.5 -7t-0.5 -4v-2t1 -2q1 -5 6 -9.5
t13 -4.5q10 0 16.5 5t13.5 12l0.5 0.5l1.5 1.5q3 4 6.5 8t6.5 8q10 12 19.5 27t17.5 30q3 6 6 11.5t6 11.5l15 -7q-22 -42 -40 -68.5t-36 -42.5q-16 -15 -33.5 -20.5t-37.5 -5.5q-31 0 -47.5 18.5t-16.5 47.5q0 5 0.5 10.5t1.5 11.5t2.5 12t2.5 12q1 4 2 7.5t2 6.5l60 203
q1 2 1.5 3.5t0.5 3.5q2 4 2.5 9t1.5 14v5v6v1.5v1.5v0.5v1.5q0 2 -0.5 4t-1.5 4q-3 11 -11.5 19.5t-24.5 8.5q-13 0 -33.5 -8t-49.5 -34q-14 -12 -25 -24t-21 -23q-12 -15 -22 -30.5t-20 -32.5q-2 -2 -3 -4.5t-3 -5.5l-62 -239h-89l109 412h-96l4 14h182l-34 -133v0z" />
    <glyph glyph-name="percent" unicode="&#xee;" horiz-adv-x="507" 
d="M28 188q0 92 71.5 159t156.5 85q13 2 25.5 3.5t24.5 1.5q76 0 117.5 -55.5t41.5 -128.5q0 -10 -1 -21t-4 -21q-17 -83 -90 -152t-166 -69q-81 0 -128.5 58.5t-47.5 139.5v0zM154 282l-35 -130q-1 -4 -2 -10.5t-2 -13.5q-1 -6 -1.5 -12t-0.5 -10q0 -52 26 -77.5t65 -25.5
q50 0 83 37t45 81l39 144q2 6 3 14.5t2 17.5t1.5 17.5t0.5 14.5q0 44 -21 69t-54 25q-46 0 -77.5 -27.5t-49.5 -60.5q-8 -14 -13.5 -27.5t-8.5 -25.5v0z" />
    <glyph glyph-name="percent" unicode="&#x43e;" horiz-adv-x="507" 
d="M28 188q0 92 71.5 159t156.5 85q13 2 25.5 3.5t24.5 1.5q76 0 117.5 -55.5t41.5 -128.5q0 -10 -1 -21t-4 -21q-17 -83 -90 -152t-166 -69q-81 0 -128.5 58.5t-47.5 139.5v0zM154 282l-35 -130q-1 -4 -2 -10.5t-2 -13.5q-1 -6 -1.5 -12t-0.5 -10q0 -52 26 -77.5t65 -25.5
q50 0 83 37t45 81l39 144q2 6 3 14.5t2 17.5t1.5 17.5t0.5 14.5q0 44 -21 69t-54 25q-46 0 -77.5 -27.5t-49.5 -60.5q-8 -14 -13.5 -27.5t-8.5 -25.5v0z" />
    <glyph glyph-name="F" horiz-adv-x="738" 
d="M433 643l-76 -304q88 51 139.5 64t75.5 13q77 0 123.5 -44.5t46.5 -121.5q0 -104 -44.5 -164t-97.5 -82q-16 -5 -31.5 -8t-29.5 -3q-8 0 -16 1t-16 3q-29 6 -53.5 27.5t-24.5 63.5q0 30 9.5 45.5t21.5 22.5q8 5 16 6t12 1q25 0 37 -16t12 -36q0 -15 -6 -22.5t-16 -13.5
q-2 -2 -5 -3.5t-7 -4.5q-6 -4 -11 -9.5t-5 -12.5q0 -2 0.5 -4.5t1.5 -4.5q3 -5 9 -9.5t17 -4.5q10 0 21.5 4t23.5 12q28 21 51.5 75.5t23.5 156.5v0.5v0.5q0 10 -0.5 24t-4.5 29q-6 25 -26 46t-64 21q-31 0 -55.5 -8.5t-47.5 -19.5q-6 -3 -11.5 -5.5t-10.5 -5.5
q-3 -1 -6 -2.5t-6 -2.5q-11 -6 -23.5 -13t-27.5 -16l-75 -300h92l-4 -18h-294l4 18h93l155 625h-58q-22 0 -51.5 -7t-61.5 -34q-20 -18 -39 -45.5t-37 -69.5h-20l53 174h547l-43 -174h-23q2 12 3 22.5t1 19.5q0 46 -18 70t-40 34q-14 6 -27.5 8t-21.5 2h-54v0z" />
    <glyph glyph-name="F" unicode="&#x402;" horiz-adv-x="738" 
d="M433 643l-76 -304q88 51 139.5 64t75.5 13q77 0 123.5 -44.5t46.5 -121.5q0 -104 -44.5 -164t-97.5 -82q-16 -5 -31.5 -8t-29.5 -3q-8 0 -16 1t-16 3q-29 6 -53.5 27.5t-24.5 63.5q0 30 9.5 45.5t21.5 22.5q8 5 16 6t12 1q25 0 37 -16t12 -36q0 -15 -6 -22.5t-16 -13.5
q-2 -2 -5 -3.5t-7 -4.5q-6 -4 -11 -9.5t-5 -12.5q0 -2 0.5 -4.5t1.5 -4.5q3 -5 9 -9.5t17 -4.5q10 0 21.5 4t23.5 12q28 21 51.5 75.5t23.5 156.5v0.5v0.5q0 10 -0.5 24t-4.5 29q-6 25 -26 46t-64 21q-31 0 -55.5 -8.5t-47.5 -19.5q-6 -3 -11.5 -5.5t-10.5 -5.5
q-3 -1 -6 -2.5t-6 -2.5q-11 -6 -23.5 -13t-27.5 -16l-75 -300h92l-4 -18h-294l4 18h93l155 625h-58q-22 0 -51.5 -7t-61.5 -34q-20 -18 -39 -45.5t-37 -69.5h-20l53 174h547l-43 -174h-23q2 12 3 22.5t1 19.5q0 46 -18 70t-40 34q-14 6 -27.5 8t-21.5 2h-54v0z" />
    <glyph glyph-name="G" unicode="&#xba;" horiz-adv-x="462" 
d="M420 434l-37 -142h-18v21q0 51 -16.5 74.5t-36.5 30.5q-8 3 -15.5 4t-14.5 1q-53 0 -93.5 -59.5t-52.5 -130.5h157l-5 -20h-157q-2 -10 -4 -21.5t-3 -23.5q-2 -18 -2.5 -35t-0.5 -30q0 -42 23.5 -71t62.5 -29q28 0 53.5 13.5t35.5 29.5q3 4 4.5 8t1.5 8q0 6 -3 9t-8 5
q-11 7 -16.5 18t-5.5 23q0 22 15.5 34.5t34.5 13.5h1.5h1.5q19 0 31.5 -11.5t16.5 -25.5q0 -2 0.5 -4.5t0.5 -5.5q0 -11 -5.5 -25t-16.5 -28q-22 -29 -61.5 -52t-94.5 -23q-11 0 -22.5 1.5t-23.5 4.5q-45 10 -82 46t-37 106q0 10 1 20.5t2 20.5q14 93 82 170.5t160 77.5
q21 0 33 -2.5t21 -4.5l6 -2l6 -2q5 -2 10.5 -3t12.5 -1q4 0 9 0.5t9 1.5l12 4t10 6h18v0z" />
    <glyph glyph-name="G" unicode="&#x454;" horiz-adv-x="462" 
d="M420 434l-37 -142h-18v21q0 51 -16.5 74.5t-36.5 30.5q-8 3 -15.5 4t-14.5 1q-53 0 -93.5 -59.5t-52.5 -130.5h157l-5 -20h-157q-2 -10 -4 -21.5t-3 -23.5q-2 -18 -2.5 -35t-0.5 -30q0 -42 23.5 -71t62.5 -29q28 0 53.5 13.5t35.5 29.5q3 4 4.5 8t1.5 8q0 6 -3 9t-8 5
q-11 7 -16.5 18t-5.5 23q0 22 15.5 34.5t34.5 13.5h1.5h1.5q19 0 31.5 -11.5t16.5 -25.5q0 -2 0.5 -4.5t0.5 -5.5q0 -11 -5.5 -25t-16.5 -28q-22 -29 -61.5 -52t-94.5 -23q-11 0 -22.5 1.5t-23.5 4.5q-45 10 -82 46t-37 106q0 10 1 20.5t2 20.5q14 93 82 170.5t160 77.5
q21 0 33 -2.5t21 -4.5l6 -2l6 -2q5 -2 10.5 -3t12.5 -1q4 0 9 0.5t9 1.5l12 4t10 6h18v0z" />
    <glyph glyph-name="ampersand" unicode="&#xab;" horiz-adv-x="438" 
d="M269 8l-10 -8q-38 65 -85.5 117t-103.5 93q76 41 149.5 92.5t143.5 115.5l6 -7q-44 -55 -91 -105t-97 -97q28 -46 50 -96.5t38 -104.5v0zM367 100l-12 -4q-21 33 -48 61.5t-61 52.5q46 23 87.5 51.5t78.5 61.5l9 -4q-21 -30 -45.5 -57.5t-51.5 -51.5q15 -25 26 -52.5
t17 -57.5v0z" />
    <glyph glyph-name="quotesingle" unicode="&#xac;" horiz-adv-x="741" 
d="M699 280v-182h-36v150h-621v32h657v0z" />
    <glyph glyph-name="asciitilde" horiz-adv-x="565" 
d="M224 643h-92l5 18h484l-46 -184h-16q1 8 1 15.5v14.5q0 51 -20.5 93.5t-82.5 42.5h-123l-156 -625h92l-4 -18h-294l4 18h93l155 625v0z" />
    <glyph glyph-name="asciitilde" unicode="&#x403;" horiz-adv-x="565" 
d="M224 643h-92l5 18h484l-46 -184h-16q1 8 1 15.5v14.5q0 51 -20.5 93.5t-82.5 42.5h-123l-156 -625h92l-4 -18h-294l4 18h93l155 625v0z" />
    <glyph glyph-name="parenleft" unicode="&#x201a;" horiz-adv-x="407" 
d="M80 -171l-10 15q10 7 22.5 17.5t26.5 22.5l18 18t16 18q13 15 22 29.5t10 25.5v3.5v3.5v2v2q-1 4 -3 6t-4 3t-4 1h-3q-3 0 -4.5 -0.5l-1.5 -0.5v0l-1 -1l-2.5 -0.5t-9.5 -0.5q-3 0 -7.5 1t-9.5 3q-9 4 -17 15.5t-8 32.5q0 29 17 42.5t40 13.5q4 0 8.5 -0.5t8.5 -1.5
q16 -4 28.5 -20t12.5 -53q0 -13 -3.5 -26t-9.5 -27q-16 -36 -46.5 -69.5t-63.5 -58.5q-6 -4 -11.5 -8t-10.5 -7v-1z" />
    <glyph glyph-name="hyphen" unicode="&#xf4;" horiz-adv-x="761" 
d="M299 103h-4q-6 -9 -13 -20t-17 -22q-22 -27 -55 -49t-75 -22q-51 0 -74 38t-29 84q-2 14 -3 27.5t-1 26.5q0 90 44.5 150.5t98.5 91.5q25 14 50 21.5t45 7.5q34 0 53 -22.5t27 -49.5q3 -13 5 -25.5t2 -22.5l3 -1l83 314h-96l4 14h180l-88 -341h3q30 56 68.5 92.5
t78.5 40.5q2 1 4.5 1h5.5q47 0 83.5 -40.5t36.5 -110.5q0 -12 -1 -24.5t-3 -24.5q-16 -93 -81 -170t-151 -77q-8 0 -17.5 1.5t-19.5 6.5q-18 7 -34.5 30t-23.5 70h-1l-79 -308h-92l83 313v0zM317 175l19 72q0 2 0.5 3t0.5 3q1 9 1.5 18.5t0.5 21.5v15t-1 16q-3 34 -15 62.5
t-44 28.5q-11 0 -24 -3.5t-27 -12.5q-19 -12 -36.5 -38.5t-29.5 -72.5l-41 -157q-1 -5 -2.5 -10.5t-3.5 -12.5q0 -2 -0.5 -4.5t-1.5 -5.5q-2 -9 -3.5 -18t-1.5 -15q0 -31 9 -43.5t20 -15.5q3 -1 6 -1.5t6 -0.5q11 0 23.5 4.5t24.5 11.5q24 15 46.5 39.5t40.5 50.5
q11 18 19.5 34.5t13.5 30.5v0zM422 230l-19 -74q0 -3 -0.5 -6.5t-0.5 -7.5q0 -2 -0.5 -4.5t-0.5 -4.5q0 -6 -0.5 -11.5t-0.5 -9.5q0 -9 1.5 -19.5t4.5 -21.5q7 -25 24.5 -46t48.5 -21q46 0 69.5 39t37.5 86q1 4 2 7.5t2 7.5l26 98q1 4 2.5 8.5t2.5 9.5q1 7 3 15t3 15
q2 9 3 17.5t2 16.5q1 5 1 9.5v9.5v4v4q-1 2 -1 4.5v4.5q-1 5 -2 11t-3 13q-4 12 -14 22.5t-30 10.5q-11 0 -22.5 -5t-23.5 -13q-23 -17 -45 -44.5t-39 -57.5q-10 -18 -18 -35t-13 -32v0z" />
    <glyph glyph-name="hyphen" unicode="&#x444;" horiz-adv-x="761" 
d="M299 103h-4q-6 -9 -13 -20t-17 -22q-22 -27 -55 -49t-75 -22q-51 0 -74 38t-29 84q-2 14 -3 27.5t-1 26.5q0 90 44.5 150.5t98.5 91.5q25 14 50 21.5t45 7.5q34 0 53 -22.5t27 -49.5q3 -13 5 -25.5t2 -22.5l3 -1l83 314h-96l4 14h180l-88 -341h3q30 56 68.5 92.5
t78.5 40.5q2 1 4.5 1h5.5q47 0 83.5 -40.5t36.5 -110.5q0 -12 -1 -24.5t-3 -24.5q-16 -93 -81 -170t-151 -77q-8 0 -17.5 1.5t-19.5 6.5q-18 7 -34.5 30t-23.5 70h-1l-79 -308h-92l83 313v0zM317 175l19 72q0 2 0.5 3t0.5 3q1 9 1.5 18.5t0.5 21.5v15t-1 16q-3 34 -15 62.5
t-44 28.5q-11 0 -24 -3.5t-27 -12.5q-19 -12 -36.5 -38.5t-29.5 -72.5l-41 -157q-1 -5 -2.5 -10.5t-3.5 -12.5q0 -2 -0.5 -4.5t-1.5 -5.5q-2 -9 -3.5 -18t-1.5 -15q0 -31 9 -43.5t20 -15.5q3 -1 6 -1.5t6 -0.5q11 0 23.5 4.5t24.5 11.5q24 15 46.5 39.5t40.5 50.5
q11 18 19.5 34.5t13.5 30.5v0zM422 230l-19 -74q0 -3 -0.5 -6.5t-0.5 -7.5q0 -2 -0.5 -4.5t-0.5 -4.5q0 -6 -0.5 -11.5t-0.5 -9.5q0 -9 1.5 -19.5t4.5 -21.5q7 -25 24.5 -46t48.5 -21q46 0 69.5 39t37.5 86q1 4 2 7.5t2 7.5l26 98q1 4 2.5 8.5t2.5 9.5q1 7 3 15t3 15
q2 9 3 17.5t2 16.5q1 5 1 9.5v9.5v4v4q-1 2 -1 4.5v4.5q-1 5 -2 11t-3 13q-4 12 -14 22.5t-30 10.5q-11 0 -22.5 -5t-23.5 -13q-23 -17 -45 -44.5t-39 -57.5q-10 -18 -18 -35t-13 -32v0z" />
    <glyph glyph-name="N" horiz-adv-x="761" 
d="M168 18l155 625h-58q-28 0 -62 -10t-69 -50q-14 -17 -29 -40.5t-29 -55.5h-20l53 174h547l-43 -174h-23q2 12 3 22.5t1 19.5q0 46 -18 70t-40 34q-14 6 -27.5 8t-21.5 2h-54l-78 -310q78 32 135.5 49t110.5 17t80.5 -25t26.5 -69q0 -9 -1.5 -18.5t-3.5 -20.5l-62 -248h92
l-4 -18h-294l4 18h93l58 236q4 18 8 29.5t5 22.5q1 2 1 4v4q0 26 -7 39t-29 18q-3 1 -5.5 1.5t-5.5 0.5q-3 1 -5.5 1h-5.5q-7 0 -13 -0.5t-12 -2.5q-18 -3 -43 -10.5t-52 -16.5q-16 -6 -31.5 -12.5t-29.5 -12.5q-4 -2 -8 -3.5t-7 -3.5l-73 -294h92l-4 -18h-294l4 18h93v0z
" />
    <glyph glyph-name="N" unicode="&#x40b;" horiz-adv-x="761" 
d="M168 18l155 625h-58q-28 0 -62 -10t-69 -50q-14 -17 -29 -40.5t-29 -55.5h-20l53 174h547l-43 -174h-23q2 12 3 22.5t1 19.5q0 46 -18 70t-40 34q-14 6 -27.5 8t-21.5 2h-54l-78 -310q78 32 135.5 49t110.5 17t80.5 -25t26.5 -69q0 -9 -1.5 -18.5t-3.5 -20.5l-62 -248h92
l-4 -18h-294l4 18h93l58 236q4 18 8 29.5t5 22.5q1 2 1 4v4q0 26 -7 39t-29 18q-3 1 -5.5 1.5t-5.5 0.5q-3 1 -5.5 1h-5.5q-7 0 -13 -0.5t-12 -2.5q-18 -3 -43 -10.5t-52 -16.5q-16 -6 -31.5 -12.5t-29.5 -12.5q-4 -2 -8 -3.5t-7 -3.5l-73 -294h92l-4 -18h-294l4 18h93v0z
" />
    <glyph glyph-name="M" 
 />
    <glyph glyph-name="greater" unicode="&#xa0;" 
 />
    <glyph glyph-name="zero" unicode="&#xb0;" horiz-adv-x="350" 
d="M154 578q0 38 26 64.5t65 26.5q37 0 64 -26t27 -65q0 -37 -26.5 -64t-64.5 -27q-39 0 -65 27t-26 64v0zM179 578q0 -26 19 -46t47 -20q27 0 46.5 19t19.5 47t-19.5 47t-46.5 19q-28 0 -47 -19.5t-19 -46.5v0z" />
    <glyph glyph-name="slash" unicode="&#xa2;" horiz-adv-x="506" 
d="M471 426l-98 -367q-26 -95 -66 -152t-83 -86q-37 -26 -72.5 -35t-61.5 -9q-59 0 -89.5 25t-37.5 55q-1 5 -1.5 9.5t-0.5 8.5q0 23 17.5 42.5t46.5 19.5q28 0 42.5 -17.5t17.5 -37.5v-4v-4q0 -7 -2 -13t-5 -12q-5 -8 -11.5 -13t-13.5 -9q-1 0 -2 -0.5l-3 -1.5
q-3 -2 -5.5 -5t-2.5 -8q0 -2 0.5 -3.5t1.5 -3.5q4 -6 14.5 -10t33.5 -4q64 0 101 47.5t62 130.5l50 164h-1q-28 -41 -66 -76.5t-78 -53.5q-15 -6 -30 -9.5t-29 -3.5q-37 0 -58.5 20.5t-21.5 70.5q0 5 0.5 10.5t1.5 10.5q1 6 2.5 11.5t2.5 11.5q0 2 1 4t1 4l74 279h-96l3 14
h182l-82 -319q-1 -6 -2 -13t-1 -15q-1 -5 -1 -9.5v-9.5q0 -16 7.5 -23.5t16.5 -9.5q3 -1 6.5 -1.5t6.5 -0.5q16 0 34 8.5t37 23.5q25 20 49.5 48t42.5 58q4 6 7.5 12t6.5 12l63 239h89v0zM474 636l10 -12q-9 -10 -22 -23t-29 -27q-26 -23 -57.5 -43t-63.5 -27
q-7 -1 -13.5 -2t-13.5 -1q-37 0 -63.5 21.5t-26.5 57.5q0 30 19.5 45.5t44.5 15.5q27 0 40.5 -15t16.5 -33v-3v-4q0 -7 -1 -13.5t-5 -12.5q-4 -7 -9.5 -10.5t-11.5 -5.5q-1 0 -2.5 -0.5t-3.5 -1.5q-4 -1 -7 -3.5t-3 -7.5q0 -1 0.5 -2.5t0.5 -2.5q2 -4 6 -6.5t12 -2.5
q23 0 60 19.5t76 54.5q12 10 23.5 21.5t22.5 23.5v0z" />
    <glyph glyph-name="slash" unicode="&#x45e;" horiz-adv-x="506" 
d="M471 426l-98 -367q-26 -95 -66 -152t-83 -86q-37 -26 -72.5 -35t-61.5 -9q-59 0 -89.5 25t-37.5 55q-1 5 -1.5 9.5t-0.5 8.5q0 23 17.5 42.5t46.5 19.5q28 0 42.5 -17.5t17.5 -37.5v-4v-4q0 -7 -2 -13t-5 -12q-5 -8 -11.5 -13t-13.5 -9q-1 0 -2 -0.5l-3 -1.5
q-3 -2 -5.5 -5t-2.5 -8q0 -2 0.5 -3.5t1.5 -3.5q4 -6 14.5 -10t33.5 -4q64 0 101 47.5t62 130.5l50 164h-1q-28 -41 -66 -76.5t-78 -53.5q-15 -6 -30 -9.5t-29 -3.5q-37 0 -58.5 20.5t-21.5 70.5q0 5 0.5 10.5t1.5 10.5q1 6 2.5 11.5t2.5 11.5q0 2 1 4t1 4l74 279h-96l3 14
h182l-82 -319q-1 -6 -2 -13t-1 -15q-1 -5 -1 -9.5v-9.5q0 -16 7.5 -23.5t16.5 -9.5q3 -1 6.5 -1.5t6.5 -0.5q16 0 34 8.5t37 23.5q25 20 49.5 48t42.5 58q4 6 7.5 12t6.5 12l63 239h89v0zM474 636l10 -12q-9 -10 -22 -23t-29 -27q-26 -23 -57.5 -43t-63.5 -27
q-7 -1 -13.5 -2t-13.5 -1q-37 0 -63.5 21.5t-26.5 57.5q0 30 19.5 45.5t44.5 15.5q27 0 40.5 -15t16.5 -33v-3v-4q0 -7 -1 -13.5t-5 -12.5q-4 -7 -9.5 -10.5t-11.5 -5.5q-1 0 -2.5 -0.5t-3.5 -1.5q-4 -1 -7 -3.5t-3 -7.5q0 -1 0.5 -2.5t0.5 -2.5q2 -4 6 -6.5t12 -2.5
q23 0 60 19.5t76 54.5q12 10 23.5 21.5t22.5 23.5v0z" />
    <glyph glyph-name="quotedblleft" unicode="&#xa4;" horiz-adv-x="774" 
d="M664 662l40 -40l-101 -100q23 -27 37 -57t20 -60q4 -15 5.5 -30t1.5 -30t-1.5 -30t-5.5 -30q-6 -30 -20 -60t-37 -57l101 -100l-40 -40l-100 101q-27 -22 -57 -36.5t-60 -20.5q-15 -4 -30 -5.5t-30 -1.5t-30 1.5t-30 5.5q-30 6 -60 20.5t-57 36.5l-100 -101l-40 40
l101 100q-22 27 -36.5 57t-20.5 60q-4 15 -5.5 30t-1.5 30t1.5 30t5.5 30q6 30 20.5 60t36.5 57l-101 100l40 40l100 -101q27 23 57 37t60 20q15 4 30 5.5t30 1.5t30 -1.5t30 -5.5q30 -6 60 -20t57 -37l100 101v0zM163 345q0 -96 66.5 -163t157.5 -67q92 0 158 67t66 163
t-66 163t-158 67q-91 0 -157.5 -67t-66.5 -163v0z" />
    <glyph glyph-name="equal" unicode="&#xe0;" horiz-adv-x="518" 
d="M352 365h5l15 61h89l-97 -367q0 -1 -0.5 -3t-0.5 -4q0 -1 -0.5 -2l-0.5 -1q0 -4 -0.5 -7.5t-0.5 -4.5v-2t1 -2q1 -5 6 -9.5t13 -4.5q10 0 16.5 5t13.5 12l0.5 0.5l1.5 1.5q3 4 6.5 8t6.5 8q10 12 19.5 27t17.5 30q3 6 6 11.5t6 11.5l15 -7q-22 -42 -40 -68.5t-36 -42.5
q-16 -15 -33.5 -20.5t-37.5 -5.5q-31 0 -47.5 18.5t-16.5 47.5v11h-4q-22 -35 -49.5 -56t-69.5 -21q-55 0 -91.5 48.5t-36.5 115.5q0 90 47.5 153t104.5 96q28 17 56 25.5t49 8.5q32 0 47.5 -18.5t19.5 -53.5v0zM302 172l29 107q0 1 1.5 7t3.5 16q1 6 2.5 14t1.5 15
q1 4 1 7.5v6.5q0 39 -17.5 58.5t-40.5 19.5q-33 0 -58 -23t-41 -51q-13 -23 -20.5 -43.5t-9.5 -27.5l-28 -112q-8 -34 -11.5 -54.5t-3.5 -35.5q0 -37 17 -55t39 -18q6 0 12.5 1t12.5 4q32 12 61.5 53.5t48.5 110.5v0z" />
    <glyph glyph-name="equal" unicode="&#x430;" horiz-adv-x="518" 
d="M352 365h5l15 61h89l-97 -367q0 -1 -0.5 -3t-0.5 -4q0 -1 -0.5 -2l-0.5 -1q0 -4 -0.5 -7.5t-0.5 -4.5v-2t1 -2q1 -5 6 -9.5t13 -4.5q10 0 16.5 5t13.5 12l0.5 0.5l1.5 1.5q3 4 6.5 8t6.5 8q10 12 19.5 27t17.5 30q3 6 6 11.5t6 11.5l15 -7q-22 -42 -40 -68.5t-36 -42.5
q-16 -15 -33.5 -20.5t-37.5 -5.5q-31 0 -47.5 18.5t-16.5 47.5v11h-4q-22 -35 -49.5 -56t-69.5 -21q-55 0 -91.5 48.5t-36.5 115.5q0 90 47.5 153t104.5 96q28 17 56 25.5t49 8.5q32 0 47.5 -18.5t19.5 -53.5v0zM302 172l29 107q0 1 1.5 7t3.5 16q1 6 2.5 14t1.5 15
q1 4 1 7.5v6.5q0 39 -17.5 58.5t-40.5 19.5q-33 0 -58 -23t-41 -51q-13 -23 -20.5 -43.5t-9.5 -27.5l-28 -112q-8 -34 -11.5 -54.5t-3.5 -35.5q0 -37 17 -55t39 -18q6 0 12.5 1t12.5 4q32 12 61.5 53.5t48.5 110.5v0z" />
    <glyph glyph-name="emdash" unicode="&#xa5;" horiz-adv-x="560" 
d="M225 643h-93l5 18h349q41 0 77 16t63 82h18l-68 -282h-18q1 8 1 15.5v14.5q0 51 -20.5 93.5t-82.5 42.5h-122l-156 -625h93l-5 -18h-294l5 18h92l156 625v0z" />
    <glyph glyph-name="emdash" unicode="&#x490;" horiz-adv-x="560" 
d="M225 643h-93l5 18h349q41 0 77 16t63 82h18l-68 -282h-18q1 8 1 15.5v14.5q0 51 -20.5 93.5t-82.5 42.5h-122l-156 -625h93l-5 -18h-294l5 18h92l156 625v0z" />
    <glyph glyph-name="endash" unicode="&#xa3;" horiz-adv-x="406" 
d="M198 661h250l-5 -18h-54l-125 -477q-3 -11 -10 -34.5t-22 -48.5q-20 -34 -56.5 -62t-97.5 -28q-63 0 -91 30.5t-28 70.5q0 38 22 56t50 18q29 0 44 -19.5t15 -43.5q0 -13 -5 -22t-10 -15q-3 -2 -5 -4t-4 -3q-8 -5 -15 -7.5t-12 -4.5q-4 -1 -6.5 -2t-3.5 -3t-1.5 -4.5
t0.5 -5.5q0 -1 0.5 -2t0.5 -2t0.5 -1.5t0.5 -1.5q3 -6 10.5 -12t19.5 -6q22 0 36.5 13.5t23.5 30.5q6 11 9.5 21.5l5.5 16.5l145 552h-87l5 18v0z" />
    <glyph glyph-name="endash" unicode="&#x408;" horiz-adv-x="406" 
d="M198 661h250l-5 -18h-54l-125 -477q-3 -11 -10 -34.5t-22 -48.5q-20 -34 -56.5 -62t-97.5 -28q-63 0 -91 30.5t-28 70.5q0 38 22 56t50 18q29 0 44 -19.5t15 -43.5q0 -13 -5 -22t-10 -15q-3 -2 -5 -4t-4 -3q-8 -5 -15 -7.5t-12 -4.5q-4 -1 -6.5 -2t-3.5 -3t-1.5 -4.5
t0.5 -5.5q0 -1 0.5 -2t0.5 -2t0.5 -1.5t0.5 -1.5q3 -6 10.5 -12t19.5 -6q22 0 36.5 13.5t23.5 30.5q6 11 9.5 21.5l5.5 16.5l145 552h-87l5 18v0z" />
    <glyph glyph-name="yright" unicode="&#xe5;" horiz-adv-x="455" 
d="M124 183l-12 -48q0 -1 -0.5 -2.5t-0.5 -2.5q-2 -7 -3 -14.5t-1 -20.5q0 -8 1.5 -17.5t5.5 -19.5q8 -21 27 -38t55 -17q18 0 47 7t61 26q23 14 44.5 36t39.5 53l14 -6q-6 -9 -12.5 -17t-12.5 -16q-36 -44 -77.5 -70t-109.5 -26q-74 0 -114 51.5t-47 113.5q0 7 -0.5 13.5
t-0.5 13.5q0 89 59.5 153t130.5 88q20 7 39 10.5t37 3.5q59 0 89 -29.5t30 -71.5q0 -59 -45 -85.5t-117 -41.5l-127 -26v0zM129 199l109 25q7 2 19 5.5t25 15.5q11 11 21.5 30t17.5 50l10 44q0 2 0.5 4t0.5 5q1 2 1 4v4q0 15 -9 26t-29 11q-14 0 -32 -5t-36 -18
q-23 -17 -45.5 -51t-37.5 -92l-15 -58v0z" />
    <glyph glyph-name="yright" unicode="&#x435;" horiz-adv-x="455" 
d="M124 183l-12 -48q0 -1 -0.5 -2.5t-0.5 -2.5q-2 -7 -3 -14.5t-1 -20.5q0 -8 1.5 -17.5t5.5 -19.5q8 -21 27 -38t55 -17q18 0 47 7t61 26q23 14 44.5 36t39.5 53l14 -6q-6 -9 -12.5 -17t-12.5 -16q-36 -44 -77.5 -70t-109.5 -26q-74 0 -114 51.5t-47 113.5q0 7 -0.5 13.5
t-0.5 13.5q0 89 59.5 153t130.5 88q20 7 39 10.5t37 3.5q59 0 89 -29.5t30 -71.5q0 -59 -45 -85.5t-117 -41.5l-127 -26v0zM129 199l109 25q7 2 19 5.5t25 15.5q11 11 21.5 30t17.5 50l10 44q0 2 0.5 4t0.5 5q1 2 1 4v4q0 15 -9 26t-29 11q-14 0 -32 -5t-36 -18
q-23 -17 -45.5 -51t-37.5 -92l-15 -58v0z" />
    <glyph glyph-name="circumflex" unicode="&#xa6;" horiz-adv-x="364" 
d="M70 46q0 24 16 39.5t39 15.5t38.5 -15.5t15.5 -39.5q0 -23 -15.5 -38t-38.5 -15q-24 0 -39.5 15.5t-15.5 37.5v0zM157 391q0 23 15.5 38.5t38.5 15.5q24 0 39.5 -15.5t15.5 -38.5t-15.5 -39t-39.5 -16q-22 0 -38 15.5t-16 39.5v0z" />
    <glyph glyph-name="scaron" unicode="&#xa7;" horiz-adv-x="551" 
d="M276 2l-122 135q-17 20 -31.5 50.5t-14.5 64.5q0 24 5.5 47t17.5 46t32 46t49 47q-7 17 -10.5 33t-3.5 32q0 67 50.5 112.5t110.5 52.5q4 0 8.5 0.5t9.5 0.5q59 0 95 -37t40 -82v-4v-4q0 -25 -15 -40t-34 -15q-20 0 -36.5 12.5t-16.5 37.5q0 13 5 22t11 14q3 3 6 5.5
t5 3.5q1 1 3 2.5t3 2.5q5 4 8.5 9t3.5 10q0 4 -1.5 8t-4.5 8q-7 11 -25 20t-47 9q-45 0 -78 -23.5t-33 -63.5q0 -26 8.5 -49.5t18.5 -39.5q4 -6 8 -11t7 -9l113 -127q4 -4 9.5 -10t10.5 -14q10 -14 18 -33.5t8 -45.5v-0.5v-0.5q0 -29 -12 -78t-86 -125q10 -16 14 -33.5
t4 -39.5q0 -82 -60 -128.5t-132 -48.5h-3.5h-2.5q-59 0 -95 33.5t-48 73.5q-4 11 -5.5 21.5t-1.5 20.5q0 31 17.5 48.5t41.5 17.5t37 -13.5t15 -29.5q1 -2 1 -4.5v-4.5q0 -15 -8 -25t-17 -17l-6 -4l-6 -4l-0.5 -0.5t-1.5 -0.5l-1.5 -1.5l-0.5 -0.5q-7 -5 -12.5 -11.5
t-5.5 -19.5q0 -2 0.5 -4.5t0.5 -4.5q6 -19 31.5 -35t64.5 -16q55 0 91.5 26t36.5 78q0 37 -11 62.5t-30 45.5v0zM205 219l153 -181q16 12 27.5 26.5t18.5 29.5q8 17 12 33t4 29t-9 32t-25 40q-3 3 -5.5 6t-5.5 6l-135 150l-23 29q-20 -18 -31.5 -33.5t-16.5 -30.5
q-4 -11 -5.5 -22t-1.5 -23v-4v-4q2 -17 11 -36t32 -47v0z" />
    <glyph glyph-name="guilsinglright" unicode="&#xe6;" horiz-adv-x="882" 
d="M386 225l-75 -1q-26 -92 -87 -163t-134 -71q-37 0 -56 21.5t-22 47.5q-1 3 -1 5.5v4.5q0 29 16.5 47.5t42.5 18.5q27 0 39.5 -14.5t15.5 -32.5q0 -3 0.5 -7t0.5 -7q0 -14 -5 -21t-11 -10q-3 -2 -5.5 -3t-4.5 -2l-1 -0.5l-1 -0.5q-4 -2 -7.5 -5.5t-5.5 -7.5q-1 -2 -1.5 -4
t-0.5 -4v-1.5t1 -0.5q1 -3 6 -6t11 -3q26 0 42.5 23t25.5 50q4 11 7 21.5t6 19.5l41 152q3 11 6 25t5 29l2 22t1 21q0 21 -9.5 33t-20.5 17q-5 3 -10.5 4t-9.5 1q-18 0 -37.5 -14t-39.5 -37q-13 -15 -26 -34t-26 -39l-11 9q4 6 7.5 11.5t6.5 10.5q28 43 59 75t82 32
q57 0 87 -49t30 -116q0 -4 -0.5 -8.5t-0.5 -8.5q-1 -4 -1.5 -8.5t-1.5 -8.5l75 1l50 187h83l-50 -187l73 2q20 62 57 105t78 66q22 12 44 18.5t41 6.5q40 0 61.5 -20t27.5 -44q1 -5 1.5 -10t0.5 -10q0 -24 -18 -38.5t-40 -15.5h-1.5h-1.5q-25 0 -38.5 15.5t-13.5 34.5
q0 11 4.5 20.5t11.5 14.5q2 1 3.5 2.5t3.5 2.5q4 3 7.5 7t3.5 10t-6.5 11t-18.5 5q-27 0 -47.5 -25t-33.5 -56q-11 -26 -17.5 -48.5t-8.5 -29.5l-33 -123q-4 -16 -5.5 -35t-1.5 -42q0 -27 12.5 -40t28.5 -17q5 -2 10 -2.5t10 -0.5q8 0 16 2t16 5q23 10 46.5 30.5t42.5 42.5
q12 15 22 28.5t17 24.5l11 -8q-7 -11 -16.5 -25t-21.5 -28q-26 -32 -62 -58.5t-78 -26.5q-53 0 -91 46t-38 107v7.5v7.5q1 18 3.5 35.5t6.5 33.5l-72 -2l-59 -225h-83l59 225v0z" />
    <glyph glyph-name="guilsinglright" unicode="&#x436;" horiz-adv-x="882" 
d="M386 225l-75 -1q-26 -92 -87 -163t-134 -71q-37 0 -56 21.5t-22 47.5q-1 3 -1 5.5v4.5q0 29 16.5 47.5t42.5 18.5q27 0 39.5 -14.5t15.5 -32.5q0 -3 0.5 -7t0.5 -7q0 -14 -5 -21t-11 -10q-3 -2 -5.5 -3t-4.5 -2l-1 -0.5l-1 -0.5q-4 -2 -7.5 -5.5t-5.5 -7.5q-1 -2 -1.5 -4
t-0.5 -4v-1.5t1 -0.5q1 -3 6 -6t11 -3q26 0 42.5 23t25.5 50q4 11 7 21.5t6 19.5l41 152q3 11 6 25t5 29l2 22t1 21q0 21 -9.5 33t-20.5 17q-5 3 -10.5 4t-9.5 1q-18 0 -37.5 -14t-39.5 -37q-13 -15 -26 -34t-26 -39l-11 9q4 6 7.5 11.5t6.5 10.5q28 43 59 75t82 32
q57 0 87 -49t30 -116q0 -4 -0.5 -8.5t-0.5 -8.5q-1 -4 -1.5 -8.5t-1.5 -8.5l75 1l50 187h83l-50 -187l73 2q20 62 57 105t78 66q22 12 44 18.5t41 6.5q40 0 61.5 -20t27.5 -44q1 -5 1.5 -10t0.5 -10q0 -24 -18 -38.5t-40 -15.5h-1.5h-1.5q-25 0 -38.5 15.5t-13.5 34.5
q0 11 4.5 20.5t11.5 14.5q2 1 3.5 2.5t3.5 2.5q4 3 7.5 7t3.5 10t-6.5 11t-18.5 5q-27 0 -47.5 -25t-33.5 -56q-11 -26 -17.5 -48.5t-8.5 -29.5l-33 -123q-4 -16 -5.5 -35t-1.5 -42q0 -27 12.5 -40t28.5 -17q5 -2 10 -2.5t10 -0.5q8 0 16 2t16 5q23 10 46.5 30.5t42.5 42.5
q12 15 22 28.5t17 24.5l11 -8q-7 -11 -16.5 -25t-21.5 -28q-26 -32 -62 -58.5t-78 -26.5q-53 0 -91 46t-38 107v7.5v7.5q1 18 3.5 35.5t6.5 33.5l-72 -2l-59 -225h-83l59 225v0z" />
    <glyph glyph-name="florin" unicode="&#xe7;" horiz-adv-x="425" 
d="M95 298h-15l35 139h16q4 -8 9.5 -12.5t11.5 -6.5q4 -1 8 -1.5t7 -0.5q26 0 33 3t10 6v0.5t1 1.5q3 3 14 6.5t51 3.5q55 0 80.5 -20t31.5 -44q1 -5 1.5 -9.5t0.5 -9.5q0 -46 -41.5 -75.5t-101.5 -35.5l-1 -6h5.5t5.5 -1q40 -3 73.5 -26.5t33.5 -72.5q0 -62 -63 -104.5
t-143 -42.5q-60 0 -91.5 21.5t-43.5 47.5q-5 10 -7 20.5t-2 19.5q0 29 19 44.5t42 18.5q3 1 6 1h6q22 0 36 -16t14 -43q0 -19 -6 -29t-13 -15q-3 -2 -6 -3.5t-6 -2.5q-1 -1 -3 -1.5t-3 -1.5q-6 -2 -10 -5.5t-4 -9.5q0 -2 1 -6.5t5 -9.5q5 -6 18 -11.5t39 -5.5q7 0 22 2
t31 13q14 9 27 27.5t21 49.5l12 46q0 1 0.5 2l0.5 1q1 5 2 11t1 14q0 25 -14.5 42.5t-41.5 21.5q-2 0 -4 0.5t-4 0.5h-4h-4l-55 -2l4 14l58 2h2h2q4 0 8.5 0.5t9.5 0.5q18 2 35.5 14.5t28.5 53.5l11 40q1 4 1.5 9t1.5 11v10v9q0 2 -0.5 4t-1.5 4q-3 7 -11 13t-23 6
q-20 0 -67 -17.5t-103 -107.5v0z" />
    <glyph glyph-name="florin" unicode="&#x437;" horiz-adv-x="425" 
d="M95 298h-15l35 139h16q4 -8 9.5 -12.5t11.5 -6.5q4 -1 8 -1.5t7 -0.5q26 0 33 3t10 6v0.5t1 1.5q3 3 14 6.5t51 3.5q55 0 80.5 -20t31.5 -44q1 -5 1.5 -9.5t0.5 -9.5q0 -46 -41.5 -75.5t-101.5 -35.5l-1 -6h5.5t5.5 -1q40 -3 73.5 -26.5t33.5 -72.5q0 -62 -63 -104.5
t-143 -42.5q-60 0 -91.5 21.5t-43.5 47.5q-5 10 -7 20.5t-2 19.5q0 29 19 44.5t42 18.5q3 1 6 1h6q22 0 36 -16t14 -43q0 -19 -6 -29t-13 -15q-3 -2 -6 -3.5t-6 -2.5q-1 -1 -3 -1.5t-3 -1.5q-6 -2 -10 -5.5t-4 -9.5q0 -2 1 -6.5t5 -9.5q5 -6 18 -11.5t39 -5.5q7 0 22 2
t31 13q14 9 27 27.5t21 49.5l12 46q0 1 0.5 2l0.5 1q1 5 2 11t1 14q0 25 -14.5 42.5t-41.5 21.5q-2 0 -4 0.5t-4 0.5h-4h-4l-55 -2l4 14l58 2h2h2q4 0 8.5 0.5t9.5 0.5q18 2 35.5 14.5t28.5 53.5l11 40q1 4 1.5 9t1.5 11v10v9q0 2 -0.5 4t-1.5 4q-3 7 -11 13t-23 6
q-20 0 -67 -17.5t-103 -107.5v0z" />
    <glyph glyph-name="quotedblleft" unicode="&#xdf;" horiz-adv-x="694" 
d="M455 340h-95h-5.5h-5.5q-36 -1 -70 -23t-61 -112q-14 -48 -29.5 -82t-31.5 -58q-35 -52 -67.5 -62t-53.5 -10q-6 0 -19 1t-26 7q-14 6 -27 20.5t-19 40.5l14 11q1 -2 1.5 -3.5t1.5 -3.5q4 -12 12 -22t17 -15q2 -1 4.5 -2t4.5 -1q16 0 25.5 12.5t15.5 28.5q2 4 3.5 8.5
t3.5 8.5l54 132q3 6 6 13t6 13q21 39 62.5 71.5t118.5 33.5v6q-59 11 -91 39.5t-44 61.5q-4 10 -5.5 20t-1.5 20q0 14 3.5 30t11.5 33q19 39 71.5 71.5t158.5 32.5h338l-4 -18h-93l-155 -625h92l-5 -18h-294l5 18h92l81 322v0zM459 358l71 285h-106q-53 0 -88.5 -18.5
t-50.5 -77.5l-20 -77q-3 -10 -4 -20t-1 -18q0 -34 18.5 -49.5t40.5 -20.5q13 -3 25 -3.5t20 -0.5h95v0z" />
    <glyph glyph-name="quotedblleft" unicode="&#x42f;" horiz-adv-x="694" 
d="M455 340h-95h-5.5h-5.5q-36 -1 -70 -23t-61 -112q-14 -48 -29.5 -82t-31.5 -58q-35 -52 -67.5 -62t-53.5 -10q-6 0 -19 1t-26 7q-14 6 -27 20.5t-19 40.5l14 11q1 -2 1.5 -3.5t1.5 -3.5q4 -12 12 -22t17 -15q2 -1 4.5 -2t4.5 -1q16 0 25.5 12.5t15.5 28.5q2 4 3.5 8.5
t3.5 8.5l54 132q3 6 6 13t6 13q21 39 62.5 71.5t118.5 33.5v6q-59 11 -91 39.5t-44 61.5q-4 10 -5.5 20t-1.5 20q0 14 3.5 30t11.5 33q19 39 71.5 71.5t158.5 32.5h338l-4 -18h-93l-155 -625h92l-5 -18h-294l5 18h92l81 322v0zM459 358l71 285h-106q-53 0 -88.5 -18.5
t-50.5 -77.5l-20 -77q-3 -10 -4 -20t-1 -18q0 -34 18.5 -49.5t40.5 -20.5q13 -3 25 -3.5t20 -0.5h95v0z" />
    <glyph glyph-name="plus" 
 />
    <glyph glyph-name="comma" unicode="&#xe8;" horiz-adv-x="535" 
d="M479 426l-97 -367q0 -1 -0.5 -2.5t-0.5 -3.5t-0.5 -3t-0.5 -2q0 -3 -0.5 -6t-0.5 -5q0 -8 4 -12t10 -5q1 -1 3 -1h3q11 0 27.5 14.5t44.5 60.5q2 4 4 7.5t4 6.5q1 1 1.5 2l1.5 3q3 4 5.5 9t5.5 12l14 -7q-43 -95 -81.5 -116t-64.5 -21q-31 0 -47.5 19t-16.5 47
q0 12 2 22.5t5 20.5q1 5 2 9l2 8l4 17h-3q-24 -37 -58 -69.5t-71 -52.5q-19 -10 -38 -15.5t-36 -5.5q-36 0 -52.5 14.5t-22.5 32.5q-3 10 -3.5 19t-0.5 16v5.5v3.5q0 11 1.5 20.5t3.5 18.5q1 4 2 7l2 6l74 279h-96l4 14h181l-82 -319l-2 -12t-2 -11q-1 -6 -1 -12v-12
q0 -2 1 -6.5t3 -9.5q4 -7 11.5 -13t21.5 -6q16 0 34 8.5t37 23.5q25 20 49.5 48t42.5 58q4 6 7.5 12t6.5 12l63 239h90v0z" />
    <glyph glyph-name="comma" unicode="&#x438;" horiz-adv-x="535" 
d="M479 426l-97 -367q0 -1 -0.5 -2.5t-0.5 -3.5t-0.5 -3t-0.5 -2q0 -3 -0.5 -6t-0.5 -5q0 -8 4 -12t10 -5q1 -1 3 -1h3q11 0 27.5 14.5t44.5 60.5q2 4 4 7.5t4 6.5q1 1 1.5 2l1.5 3q3 4 5.5 9t5.5 12l14 -7q-43 -95 -81.5 -116t-64.5 -21q-31 0 -47.5 19t-16.5 47
q0 12 2 22.5t5 20.5q1 5 2 9l2 8l4 17h-3q-24 -37 -58 -69.5t-71 -52.5q-19 -10 -38 -15.5t-36 -5.5q-36 0 -52.5 14.5t-22.5 32.5q-3 10 -3.5 19t-0.5 16v5.5v3.5q0 11 1.5 20.5t3.5 18.5q1 4 2 7l2 6l74 279h-96l4 14h181l-82 -319l-2 -12t-2 -11q-1 -6 -1 -12v-12
q0 -2 1 -6.5t3 -9.5q4 -7 11.5 -13t21.5 -6q16 0 34 8.5t37 23.5q25 20 49.5 48t42.5 58q4 6 7.5 12t6.5 12l63 239h90v0z" />
    <glyph glyph-name="ellipsis" unicode="&#xed;" horiz-adv-x="532" 
d="M162 230h172l52 196h90l-98 -367q0 -1 -0.5 -3t-0.5 -4q0 -1 -0.5 -2l-0.5 -1q0 -4 -0.5 -7.5t-0.5 -4.5v-2t1 -2q1 -5 6 -9.5t13 -4.5q5 0 10.5 2t10.5 6q12 10 23 25t22 31q8 14 15.5 27.5t13.5 23.5l14 -7q-22 -42 -40 -68.5t-36 -42.5q-16 -15 -33.5 -20.5
t-37.5 -5.5q-31 0 -47.5 18.5t-16.5 47.5q0 12 3 25l6 26q0 2 0.5 4.5t1.5 4.5l26 100h-171l-56 -216h-89l109 412h-96l4 14h182l-51 -196v0z" />
    <glyph glyph-name="ellipsis" unicode="&#x43d;" horiz-adv-x="532" 
d="M162 230h172l52 196h90l-98 -367q0 -1 -0.5 -3t-0.5 -4q0 -1 -0.5 -2l-0.5 -1q0 -4 -0.5 -7.5t-0.5 -4.5v-2t1 -2q1 -5 6 -9.5t13 -4.5q5 0 10.5 2t10.5 6q12 10 23 25t22 31q8 14 15.5 27.5t13.5 23.5l14 -7q-22 -42 -40 -68.5t-36 -42.5q-16 -15 -33.5 -20.5
t-37.5 -5.5q-31 0 -47.5 18.5t-16.5 47.5q0 12 3 25l6 26q0 2 0.5 4.5t1.5 4.5l26 100h-171l-56 -216h-89l109 412h-96l4 14h182l-51 -196v0z" />
    <glyph glyph-name="dagger" unicode="&#xae;" horiz-adv-x="769" 
d="M45 328q0 143 101.5 241.5t237.5 98.5q138 0 239 -98.5t101 -241.5q0 -139 -98.5 -238.5t-241.5 -99.5q-141 0 -240 99.5t-99 238.5v0zM73 328q0 -135 91 -219t201 -91q5 -1 9.5 -1h9.5q128 0 219.5 90.5t91.5 220.5q0 131 -91.5 221t-219.5 90q-125 0 -218 -90t-93 -221
v0zM329 152h43v-11h-167v11h44v348h-44v11h162q13 0 31.5 -0.5t38.5 -3.5q35 -5 64 -22t29 -56q0 -8 -2 -18t-8 -20q-10 -16 -34 -31t-72 -21v-3q20 -4 34 -9.5t24 -11.5q15 -8 22 -15.5t10 -12.5q6 -10 8.5 -26.5t4.5 -34.5q1 -3 1 -5v-5q3 -24 6.5 -42.5t13.5 -18.5
q2 0 6.5 2.5t8.5 5.5q1 1 2.5 1.5t2.5 1.5q3 3 5.5 5t4.5 4l9 -10q-12 -13 -22 -19.5t-19 -8.5q-6 -1 -12 -1.5t-13 -0.5q-39 0 -55 16t-21 69q-7 81 -21.5 96t-47.5 15h-37v-179v0zM329 342h31h8.5t8.5 1q24 2 44.5 18t20.5 68q0 42 -18.5 56.5t-59.5 14.5h-35v-158v0z" />
    <glyph glyph-name="daggerdbl" unicode="&#xad;" horiz-adv-x="364" 
d="M70 246l11 34h213l-10 -34h-214v0z" />
    <glyph glyph-name="tilde" horiz-adv-x="549" 
d="M45 515l4 17h106l27 98h-84l3 14h168l-29 -112h215l-4 -17h-215l-57 -222h3q28 38 61 69.5t68 50.5q20 11 40 17.5t39 6.5q6 0 15 -1t18 -5q17 -6 31 -23t14 -52q0 -6 -0.5 -13t-2.5 -14q0 -6 -1.5 -11.5t-2.5 -10.5q-1 -4 -1.5 -7.5t-1.5 -6.5l-62 -234q0 -1 -0.5 -2.5
t-0.5 -3.5t-0.5 -3t-0.5 -2q0 -3 -0.5 -6t-0.5 -5q0 -8 4 -12t10 -5q1 -1 3 -1h3q11 0 27.5 14.5t44.5 60.5q2 4 4 7.5t4 6.5q1 1 1.5 2l1.5 3q3 4 5.5 9t5.5 12l14 -7q-43 -95 -81.5 -116t-64.5 -21q-31 0 -47.5 19t-16.5 47q0 12 3 25l6 26q0 2 0.5 4.5t1.5 4.5l53 203
q1 3 1.5 5.5t0.5 4.5q1 5 2 10.5t1 9.5v5v6v1.5v1.5v0.5v1.5q-2 16 -9 23.5t-15 10.5q-4 1 -7.5 1.5t-6.5 0.5q-10 0 -26 -5.5t-33 -17.5q-36 -26 -59 -54.5t-43 -59.5q-4 -6 -8 -12.5t-8 -12.5l-61 -239h-90l137 515h-106v0z" />
    <glyph glyph-name="tilde" unicode="&#x45b;" horiz-adv-x="549" 
d="M45 515l4 17h106l27 98h-84l3 14h168l-29 -112h215l-4 -17h-215l-57 -222h3q28 38 61 69.5t68 50.5q20 11 40 17.5t39 6.5q6 0 15 -1t18 -5q17 -6 31 -23t14 -52q0 -6 -0.5 -13t-2.5 -14q0 -6 -1.5 -11.5t-2.5 -10.5q-1 -4 -1.5 -7.5t-1.5 -6.5l-62 -234q0 -1 -0.5 -2.5
t-0.5 -3.5t-0.5 -3t-0.5 -2q0 -3 -0.5 -6t-0.5 -5q0 -8 4 -12t10 -5q1 -1 3 -1h3q11 0 27.5 14.5t44.5 60.5q2 4 4 7.5t4 6.5q1 1 1.5 2l1.5 3q3 4 5.5 9t5.5 12l14 -7q-43 -95 -81.5 -116t-64.5 -21q-31 0 -47.5 19t-16.5 47q0 12 3 25l6 26q0 2 0.5 4.5t1.5 4.5l53 203
q1 3 1.5 5.5t0.5 4.5q1 5 2 10.5t1 9.5v5v6v1.5v1.5v0.5v1.5q-2 16 -9 23.5t-15 10.5q-4 1 -7.5 1.5t-6.5 0.5q-10 0 -26 -5.5t-33 -17.5q-36 -26 -59 -54.5t-43 -59.5q-4 -6 -8 -12.5t-8 -12.5l-61 -239h-90l137 515h-106v0z" />
    <glyph glyph-name="guilsinglleft" horiz-adv-x="508" 
d="M236 515l-43 -169q6 6 17.5 18t26.5 25q21 18 48 33t55 15q58 0 92 -37.5t34 -115.5q0 -103 -82 -225.5t-297 -253.5l-10 16q54 41 96.5 84t74.5 87q76 103 102 198t26 140v7.5v8.5v6.5v7.5q-2 16 -9 29.5t-27 13.5q-25 0 -52.5 -12.5t-55.5 -32.5q-12 -9 -23.5 -19.5
t-23.5 -21.5l-81 -317h-90l137 515h-106l4 17h106l26 98h-84l4 14h168l-29 -112h215l-4 -17h-215v0z" />
    <glyph glyph-name="guilsinglleft" unicode="&#x452;" horiz-adv-x="508" 
d="M236 515l-43 -169q6 6 17.5 18t26.5 25q21 18 48 33t55 15q58 0 92 -37.5t34 -115.5q0 -103 -82 -225.5t-297 -253.5l-10 16q54 41 96.5 84t74.5 87q76 103 102 198t26 140v7.5v8.5v6.5v7.5q-2 16 -9 29.5t-27 13.5q-25 0 -52.5 -12.5t-55.5 -32.5q-12 -9 -23.5 -19.5
t-23.5 -21.5l-81 -317h-90l137 515h-106l4 17h106l26 98h-84l4 14h168l-29 -112h215l-4 -17h-215v0z" />
    <glyph glyph-name="bullet" horiz-adv-x="764" 
d="M69 18l155 625h-92l5 18h294l-5 -18h-92l-156 -625h266l156 625h-92l4 18h294l-4 -18h-93l-156 -625h93l-5 -18h-221q-54 -40 -89.5 -94t-52.5 -115l-33 -1q2 9 3.5 18.5t2.5 18.5q1 11 2 21.5t1 19.5q0 33 -8 58.5t-17 42.5q-7 12 -13 20t-9 11h-235l4 18h93v0z" />
    <glyph glyph-name="bullet" unicode="&#x40f;" horiz-adv-x="764" 
d="M69 18l155 625h-92l5 18h294l-5 -18h-92l-156 -625h266l156 625h-92l4 18h294l-4 -18h-93l-156 -625h93l-5 -18h-221q-54 -40 -89.5 -94t-52.5 -115l-33 -1q2 9 3.5 18.5t2.5 18.5q1 11 2 21.5t1 19.5q0 33 -8 58.5t-17 42.5q-7 12 -13 20t-9 11h-235l4 18h93v0z" />
    <glyph glyph-name="oe" unicode="&#x201c;" horiz-adv-x="630" 
d="M313 725l10 -15q-11 -7 -20.5 -14.5t-18.5 -14.5q-37 -32 -56.5 -60t-19.5 -41v-0.5v-0.5v-3.5t1 -5.5t4 -6.5t9 -3.5h2h2q1 1 2 1h2q2 0 5 0.5t7 0.5q17 0 26 -10t13 -21q2 -6 2.5 -11.5t0.5 -9.5v-4.5t-1 -4.5q-2 -18 -15.5 -32.5t-41.5 -14.5q-31 0 -43 18t-14 39
q-1 5 -1 9.5v8.5q0 10 2 21t6 21q14 38 46.5 74.5t68.5 64.5q6 4 11.5 7.5t10.5 7.5v0zM522 725l10 -15q-52 -35 -73 -62t-32 -44q-2 -3 -3.5 -5.5t-2.5 -4.5q-2 -3 -3 -6t-1 -8v-2v-1v-2v-2v-1.5v-1.5q1 -4 3 -6t4 -3t4 -1h3h4.5t2.5 1v0h1t3.5 0.5t7.5 0.5q2 0 8 -1t12 -5
q8 -4 15 -15t7 -31q0 -25 -14.5 -40.5t-42.5 -15.5q-26 0 -38 13t-16 29q-3 9 -3.5 18t-0.5 15q0 44 28.5 84t62.5 70q14 13 28 23.5t26 18.5v0z" />
    <glyph glyph-name="O" horiz-adv-x="507" 
d="M213 426l-48 -185q6 4 13 5.5t17 1.5q2 0 8.5 -0.5t14.5 -0.5h1v0q8 0 14.5 -0.5t9.5 -0.5q38 2 49 17.5t16 42.5q1 6 2.5 12t2.5 13q11 51 31.5 78.5t61.5 27.5q36 0 52.5 -17.5t19.5 -38.5q1 -2 1 -5v-6q0 -26 -16 -42.5t-39 -16.5q-25 0 -39 15t-14 34q0 8 2.5 13
t5.5 8l2 2l2 2l1.5 3t1.5 2q0 1 0.5 2t0.5 2q1 1 1 2v2v2.5v2.5q-1 1 -1 2.5v2.5q0 3 -2 3.5t-5 0.5h-0.5h-1.5h-2.5h-3.5q-12 0 -23 -19.5t-22 -65.5q0 -1 -0.5 -2.5t-0.5 -2.5q-2 -6 -3 -11.5t-2 -11.5q-6 -20 -16 -37.5t-33 -21.5v-4q50 -9 70 -30t23 -53q0 -2 0.5 -4
t0.5 -4v-4v-4v-4v-3q-1 -2 -1 -4v-4q-1 -12 -3 -24t-5 -24q-1 -4 -1.5 -8t-1.5 -8q0 -1 -0.5 -2.5t-0.5 -3.5l-0.5 -1l-0.5 -1q0 -3 -0.5 -5t-0.5 -4v-4.5v-5.5q0 -4 1.5 -8t7.5 -4q10 0 23.5 10t27.5 27q13 16 25.5 35.5t22.5 40.5l14 -5q-5 -11 -12.5 -26t-17.5 -30
q-21 -31 -50.5 -56t-67.5 -25q-32 0 -45.5 15t-17.5 33q-1 8 -1.5 15.5t-0.5 13.5v10.5v7.5q0 9 2 18.5t5 18.5q1 4 2 7.5t2 7.5q1 5 2.5 10t2.5 10q0 1 0.5 1.5t0.5 1.5q1 5 2 9.5t2 8.5q2 5 3 10t1 9q0 16 -11.5 24.5t-25.5 10.5h-2.5h-2.5q-10 0 -13.5 -1.5t-5.5 -2.5
q0 -1 -0.5 -1h-0.5q-3 -3 -9 -4.5t-25 -1.5q-10 0 -16 1t-11 5l-59 -227h-89l109 412h-96l4 14h182v0z" />
    <glyph glyph-name="O" unicode="&#x45c;" horiz-adv-x="507" 
d="M213 426l-48 -185q6 4 13 5.5t17 1.5q2 0 8.5 -0.5t14.5 -0.5h1v0q8 0 14.5 -0.5t9.5 -0.5q38 2 49 17.5t16 42.5q1 6 2.5 12t2.5 13q11 51 31.5 78.5t61.5 27.5q36 0 52.5 -17.5t19.5 -38.5q1 -2 1 -5v-6q0 -26 -16 -42.5t-39 -16.5q-25 0 -39 15t-14 34q0 8 2.5 13
t5.5 8l2 2l2 2l1.5 3t1.5 2q0 1 0.5 2t0.5 2q1 1 1 2v2v2.5v2.5q-1 1 -1 2.5v2.5q0 3 -2 3.5t-5 0.5h-0.5h-1.5h-2.5h-3.5q-12 0 -23 -19.5t-22 -65.5q0 -1 -0.5 -2.5t-0.5 -2.5q-2 -6 -3 -11.5t-2 -11.5q-6 -20 -16 -37.5t-33 -21.5v-4q50 -9 70 -30t23 -53q0 -2 0.5 -4
t0.5 -4v-4v-4v-4v-3q-1 -2 -1 -4v-4q-1 -12 -3 -24t-5 -24q-1 -4 -1.5 -8t-1.5 -8q0 -1 -0.5 -2.5t-0.5 -3.5l-0.5 -1l-0.5 -1q0 -3 -0.5 -5t-0.5 -4v-4.5v-5.5q0 -4 1.5 -8t7.5 -4q10 0 23.5 10t27.5 27q13 16 25.5 35.5t22.5 40.5l14 -5q-5 -11 -12.5 -26t-17.5 -30
q-21 -31 -50.5 -56t-67.5 -25q-32 0 -45.5 15t-17.5 33q-1 8 -1.5 15.5t-0.5 13.5v10.5v7.5q0 9 2 18.5t5 18.5q1 4 2 7.5t2 7.5q1 5 2.5 10t2.5 10q0 1 0.5 1.5t0.5 1.5q1 5 2 9.5t2 8.5q2 5 3 10t1 9q0 16 -11.5 24.5t-25.5 10.5h-2.5h-2.5q-10 0 -13.5 -1.5t-5.5 -2.5
q0 -1 -0.5 -1h-0.5q-3 -3 -9 -4.5t-25 -1.5q-10 0 -16 1t-11 5l-59 -227h-89l109 412h-96l4 14h182v0z" />
    <glyph glyph-name="numbersign" unicode="&#x2014;" horiz-adv-x="1062" 
d="M42 246l5 34h973l-7 -34h-971v0z" />
    <glyph glyph-name="dollar" unicode="&#x2013;" horiz-adv-x="698" 
d="M56 337h600v-42h-600v42v0z" />
    <glyph glyph-name="six" unicode="&#x2122;" horiz-adv-x="560" 
d="M122 517v210h-80v23h188v-23h-80v-210h-28v0zM386 517l-77 210v-210h-28v233h49l70 -197l69 197h49v-233h-28v210l-77 -210h-27v0z" />
    <glyph glyph-name="seven" unicode="&#x2dc;" 
 />
    <glyph glyph-name="eight" unicode="&#x161;" horiz-adv-x="671" 
d="M365 412h-40q-31 0 -48.5 -10.5t-31.5 -40.5q-13 -29 -29 -79t-45 -128q-13 -34 -23 -60t-20 -45q-17 -33 -37 -46t-51 -13q-28 0 -42 11.5t-19 25.5q-4 7 -5 14.5t-1 12.5q0 28 16.5 45.5t41.5 17.5q21 0 36.5 -12.5t15.5 -37.5q0 -15 -5 -22.5t-11 -11.5q-1 0 -2 -1
t-2 -1t-1.5 -0.5l-0.5 -0.5q-1 0 -2 -0.5t-2 -0.5q-5 -2 -8.5 -4.5t-3.5 -8.5v-2t1 -3q1 -3 4.5 -5.5t9.5 -2.5q29 0 52 45t41 98q7 19 12.5 36.5t11.5 33.5q20 55 32.5 93t12.5 60t-10.5 31t-23.5 11q-3 1 -6.5 1h-6.5h-21l4 14h296l-57 -216q21 31 55.5 53t76.5 22
q44 0 75.5 -29t31.5 -79q0 -10 -2 -20.5t-6 -21.5q-20 -55 -81.5 -100t-133.5 -45q-55 0 -88.5 36t-33.5 90q0 15 2 25.5t5 19.5q1 3 2 6.5t2 6.5q0 1 0.5 1.5t0.5 1.5l62 235v0zM529 131l9 32q1 5 2.5 12t2.5 15q2 7 2.5 15t0.5 13q0 18 -7 27t-15 12q-7 4 -13 4.5t-8 0.5
q-15 0 -28.5 -4.5t-26.5 -15.5q-8 -6 -16 -14.5t-17 -19.5q-11 -15 -20.5 -35t-16.5 -41q-7 -20 -11 -39t-4 -34q0 -22 14 -39t46 -17q38 0 61 26t42 92q1 2 1.5 4.5t1.5 5.5v0z" />
    <glyph glyph-name="less" unicode="&#x203a;" horiz-adv-x="386" 
d="M117 411l10 7q38 -64 86 -115.5t103 -92.5q-76 -41 -149.5 -93t-143.5 -117l-6 8q44 54 91 104.5t97 96.5q-28 49 -50 99.5t-38 102.5v0z" />
    <glyph glyph-name="greater" unicode="&#x192;" horiz-adv-x="392" 
d="M325 151l14 -8q-8 -12 -21 -30t-31 -37q-31 -33 -75 -59.5t-99 -26.5q-45 0 -67 20.5t-29 45.5q-2 6 -2.5 12t-0.5 12q0 30 19 55t48 49q16 14 34.5 27.5t36.5 28.5q1 0 1.5 0.5l1.5 1.5q51 39 80 60.5t38 38.5q3 5 4 9.5t1 9.5v4v4q-1 20 -10.5 37.5t-41.5 17.5
q-4 0 -8 -0.5t-8 -1.5q-31 -5 -60 -27.5t-50 -48.5q-5 -6 -9 -11.5t-8 -11.5l-13 8q51 68 91.5 87.5t72.5 19.5q47 0 81.5 -23.5t34.5 -62.5q0 -31 -13 -53t-30 -36l-172 -148q-12 -10 -21 -24.5t-13 -29.5q-2 -5 -2.5 -10t-0.5 -10q0 -3 1 -6t3 -7q4 -7 14 -13t28 -6
q14 0 29 5t31 13q33 20 64.5 53.5t56.5 71.5v0z" />
    <glyph glyph-name="quotedblbase" unicode="&#x201e;" horiz-adv-x="616" 
d="M80 -171l-10 15q10 7 22.5 17.5t26.5 22.5l18 18t16 18q13 15 22 29.5t10 25.5v3.5v3.5v2v2q-1 4 -3 6t-4 3t-4 1h-3q-3 0 -4.5 -0.5l-1.5 -0.5v0l-1 -1l-2.5 -0.5t-9.5 -0.5q-3 0 -7.5 1t-9.5 3q-9 4 -17 15.5t-8 32.5q0 29 17 42.5t40 13.5q4 0 8.5 -0.5t8.5 -1.5
q16 -4 28.5 -20t12.5 -53q0 -13 -3.5 -26t-9.5 -27q-16 -36 -46.5 -69.5t-63.5 -58.5q-6 -4 -11.5 -8t-10.5 -7v-1zM289 -171l-10 15q16 12 29.5 23.5t25.5 23.5q26 25 41.5 48t18.5 36q1 1 1 3v4v0.5v1.5q-1 1 -1 1.5v0.5q0 1 -0.5 2t-1.5 2q-2 2 -5 4t-7 2h-2t-1 -1h-2h-2
t-3 -0.5t-3 -0.5q-2 -1 -3.5 -1h-3.5h-2.5h-2.5q-14 3 -25.5 16t-11.5 36t15 39.5t43 16.5q29 0 41 -16.5t15 -35.5q1 -6 1.5 -12t0.5 -11q0 -10 -2 -19.5t-5 -20.5q-14 -39 -47 -76t-69 -65q-6 -4 -11.5 -7.5t-10.5 -7.5v-1z" />
    <glyph glyph-name="edieresis" unicode="&#xeb;" horiz-adv-x="512" 
d="M363 412h-39q-28 0 -43 -5.5t-27 -27.5q-14 -24 -31 -76.5t-52 -148.5q-12 -33 -22.5 -59t-20.5 -45q-17 -33 -37 -46.5t-52 -13.5q-28 0 -42 11.5t-19 26.5q-3 7 -4 14t-1 12q0 26 15 44.5t43 18.5q25 0 38.5 -15t13.5 -35q0 -12 -4 -20t-9 -12q-2 -2 -3.5 -2.5
t-3.5 -1.5q-1 0 -2 -0.5l-3 -1.5h-0.5h-0.5q-5 -1 -8.5 -3.5t-3.5 -9.5v-2t1 -3q1 -3 4.5 -5.5t9.5 -2.5q18 0 33 19t30 51q13 28 26 65t28 78q24 66 34.5 100t10.5 53q0 20 -8.5 29t-19.5 12q-5 1 -10.5 1.5t-9.5 0.5h-20l3 14h299l-97 -367q0 -1 -0.5 -2.5t-0.5 -3.5
t-0.5 -3.5t-0.5 -2.5q-1 -3 -1 -5.5v-4.5q0 -7 3.5 -11t7.5 -5q3 -1 5.5 -1.5t3.5 -0.5q10 0 18 6.5t15 13.5q2 3 4 5.5t4 4.5q4 5 8 10.5t8 10.5q3 5 6.5 10t6.5 10q7 12 13.5 23.5t10.5 20.5l14 -7q-43 -95 -81.5 -116t-64.5 -21q-31 0 -47.5 19t-16.5 47q0 13 3 27t8 33
l78 296v0z" />
    <glyph glyph-name="edieresis" unicode="&#x43b;" horiz-adv-x="512" 
d="M363 412h-39q-28 0 -43 -5.5t-27 -27.5q-14 -24 -31 -76.5t-52 -148.5q-12 -33 -22.5 -59t-20.5 -45q-17 -33 -37 -46.5t-52 -13.5q-28 0 -42 11.5t-19 26.5q-3 7 -4 14t-1 12q0 26 15 44.5t43 18.5q25 0 38.5 -15t13.5 -35q0 -12 -4 -20t-9 -12q-2 -2 -3.5 -2.5
t-3.5 -1.5q-1 0 -2 -0.5l-3 -1.5h-0.5h-0.5q-5 -1 -8.5 -3.5t-3.5 -9.5v-2t1 -3q1 -3 4.5 -5.5t9.5 -2.5q18 0 33 19t30 51q13 28 26 65t28 78q24 66 34.5 100t10.5 53q0 20 -8.5 29t-19.5 12q-5 1 -10.5 1.5t-9.5 0.5h-20l3 14h299l-97 -367q0 -1 -0.5 -2.5t-0.5 -3.5
t-0.5 -3.5t-0.5 -2.5q-1 -3 -1 -5.5v-4.5q0 -7 3.5 -11t7.5 -5q3 -1 5.5 -1.5t3.5 -0.5q10 0 18 6.5t15 13.5q2 3 4 5.5t4 4.5q4 5 8 10.5t8 10.5q3 5 6.5 10t6.5 10q7 12 13.5 23.5t10.5 20.5l14 -7q-43 -95 -81.5 -116t-64.5 -21q-31 0 -47.5 19t-16.5 47q0 13 3 27t8 33
l78 296v0z" />
    <glyph glyph-name="igrave" unicode="&#xec;" horiz-adv-x="704" 
d="M343 115l210 311h94l-96 -367q0 -1 -0.5 -2.5t-0.5 -3.5t-0.5 -3t-0.5 -2q0 -3 -0.5 -6t-0.5 -5q0 -8 4 -12t10 -5q1 -1 3 -1h3q11 0 27.5 14.5t44.5 60.5q2 4 4 7.5t4 6.5q1 1 1.5 2l1.5 3q3 4 5.5 9t5.5 12l14 -7q-5 -11 -12 -24t-16 -27q-21 -33 -52 -59.5t-66 -26.5
q-30 0 -47 17.5t-17 48.5q0 14 3 26.5t6 25.5q0 2 0.5 4t1.5 4l73 277l-266 -404h-9l-23 400l-101 -277q-4 -10 -8.5 -23t-10.5 -26q-13 -28 -34 -50.5t-58 -22.5q-28 0 -42.5 12.5t-20.5 28.5q-2 6 -3 12t-1 11q0 30 17.5 47t40.5 17q25 0 38.5 -17t13.5 -42q0 -8 -4 -13.5
t-8 -9.5q-3 -2 -5 -3l-4 -2q-1 -1 -3 -1t-3 -1h-0.5h-0.5q-5 -1 -8.5 -3t-3.5 -8q0 -4 4 -8t14 -4q8 0 14.5 2t12.5 8q11 10 22.5 33.5t27.5 68.5l86 237q0 1 0.5 2l1.5 3q1 3 2 7.5t1 10.5q0 14 -8 21t-18 9q-6 1 -11.5 1.5t-9.5 0.5h-13l4 16h151l19 -311v0z" />
    <glyph glyph-name="igrave" unicode="&#x43c;" horiz-adv-x="704" 
d="M343 115l210 311h94l-96 -367q0 -1 -0.5 -2.5t-0.5 -3.5t-0.5 -3t-0.5 -2q0 -3 -0.5 -6t-0.5 -5q0 -8 4 -12t10 -5q1 -1 3 -1h3q11 0 27.5 14.5t44.5 60.5q2 4 4 7.5t4 6.5q1 1 1.5 2l1.5 3q3 4 5.5 9t5.5 12l14 -7q-5 -11 -12 -24t-16 -27q-21 -33 -52 -59.5t-66 -26.5
q-30 0 -47 17.5t-17 48.5q0 14 3 26.5t6 25.5q0 2 0.5 4t1.5 4l73 277l-266 -404h-9l-23 400l-101 -277q-4 -10 -8.5 -23t-10.5 -26q-13 -28 -34 -50.5t-58 -22.5q-28 0 -42.5 12.5t-20.5 28.5q-2 6 -3 12t-1 11q0 30 17.5 47t40.5 17q25 0 38.5 -17t13.5 -42q0 -8 -4 -13.5
t-8 -9.5q-3 -2 -5 -3l-4 -2q-1 -1 -3 -1t-3 -1h-0.5h-0.5q-5 -1 -8.5 -3t-3.5 -8q0 -4 4 -8t14 -4q8 0 14.5 2t12.5 8q11 10 22.5 33.5t27.5 68.5l86 237q0 1 0.5 2l1.5 3q1 3 2 7.5t1 10.5q0 14 -8 21t-18 9q-6 1 -11.5 1.5t-9.5 0.5h-13l4 16h151l19 -311v0z" />
    <glyph glyph-name="glyph229" 
 />
    <glyph glyph-name="glyph230" 
 />
    <glyph glyph-name="glyph231" 
 />
    <glyph glyph-name="glyph232" unicode="&#x2026;" horiz-adv-x="944" 
d="M70 46q0 23 15.5 39t39.5 16q23 0 38.5 -15.5t15.5 -39.5q0 -22 -15.5 -37.5t-38.5 -15.5q-24 0 -39.5 15.5t-15.5 37.5v0zM361 46q0 24 16 39.5t39 15.5t38.5 -15.5t15.5 -39.5q0 -23 -15.5 -38t-38.5 -15q-24 0 -39.5 15.5t-15.5 37.5v0zM652 46q0 3 0.5 6.5t1.5 7.5
q4 15 18 28t35 13t35 -13t18 -28q1 -4 1.5 -7.5t0.5 -6.5q0 -4 -0.5 -7.5t-1.5 -7.5q-5 -15 -18.5 -26.5t-34.5 -11.5t-34.5 11.5t-18.5 26.5q-1 4 -1.5 7.5t-0.5 7.5v0z" />
    <glyph glyph-name="glyph233" unicode="&#x2020;" horiz-adv-x="664" 
d="M381 425l-3 -14q6 -1 12 -1.5t11 -0.5q25 0 46 6.5t41 13.5l4 2l4 2q19 6 38 11.5t40 5.5q13 0 23.5 -8.5t10.5 -26.5q0 -30 -18 -54.5t-53 -24.5q-16 0 -32.5 6.5t-33.5 13.5q-2 1 -3.5 1.5t-2.5 1.5q-12 5 -22.5 9.5t-21.5 6.5q-9 3 -17.5 4t-18.5 1h-7.5t-7.5 -1
q-1 -5 -2.5 -9.5t-2.5 -9.5q-10 -41 -20.5 -95.5t-18.5 -111.5q-8 -47 -14 -93t-10 -83q-2 -17 -4 -36.5t-6 -40.5q-8 -47 -26 -86t-55 -39q-14 0 -25 6t-11 20v6.5v8.5q0 19 10.5 67.5t54.5 164.5q7 18 13 34.5t12 32.5q2 6 4.5 12t4.5 12q14 40 29.5 93t40.5 147
q-4 1 -8.5 1h-9.5q-18 0 -38 -5t-49 -16q-24 -9 -44.5 -16t-39.5 -7q-24 0 -33.5 14.5t-9.5 36.5q0 5 1 10t4 11q7 16 22 29t36 13q9 0 18.5 -1.5t18.5 -4.5q8 -2 15.5 -5t14.5 -6q2 0 3.5 -0.5t3.5 -1.5q36 -13 58 -17t33 -4h7t5 1q1 2 2 9.5t3 19.5q2 17 3.5 41.5
t1.5 56.5q0 7 -0.5 13.5t-0.5 12.5t-0.5 12.5t-0.5 13.5q0 35 18.5 54t40.5 24q4 1 9 1.5t9 0.5q17 0 26 -9t9 -24v-6t-1 -6q-1 -17 -10.5 -38t-32.5 -58q-3 -4 -5.5 -8.5t-4.5 -8.5q-11 -18 -20.5 -38.5t-16.5 -48.5v0z" />
    <glyph glyph-name="glyph234" 
 />
    <glyph glyph-name="glyph235" 
 />
    <glyph glyph-name="glyph236" unicode="&#x2021;" horiz-adv-x="563" 
d="M444 356l-5 -19h-174q-25 -83 -47.5 -121.5t-43.5 -64.5q-2 -2 -3.5 -4t-2.5 -3q-2 -3 -4.5 -5.5t-4.5 -5.5q-3 -4 -6 -7.5t-6 -7.5l-1.5 -1.5l-1.5 -1.5q-6 -7 -12.5 -14.5t-15.5 -16.5l2 -3q4 3 8.5 6l10.5 7q16 9 38.5 17t48.5 8q20 0 42.5 -8t50.5 -19
q25 -10 39 -14.5t24 -4.5q28 0 50 24t41 55l21 -6l-14 -22t-15 -23q-28 -42 -63.5 -76.5t-82.5 -34.5q-8 0 -16.5 1t-17.5 3q-15 4 -29.5 8.5t-25.5 10.5q-6 3 -12 7t-12 7q-16 10 -33.5 18t-36.5 8q-12 0 -32 -7t-45 -29q-3 -2 -5 -4.5t-5 -4.5q-2 -2 -4.5 -3.5t-4.5 -3.5
q-4 -2 -8.5 -5t-10.5 -6l-8 16q35 26 58 53.5t37 55.5q23 44 29.5 86.5t9.5 77.5q0 4 0.5 7.5t0.5 6.5q1 1 1 2.5v2.5q1 8 2 17t3 22h-98l5 19h95q14 125 79 219t190 94q49 0 78 -17t42 -38q6 -9 9 -18.5t3 -17.5q0 -3 -0.5 -6t-0.5 -6q-3 -17 -14 -30.5t-33 -13.5
q-25 0 -39.5 14t-14.5 36q0 7 1.5 13.5t4.5 12.5q1 2 2.5 4.5t2.5 4.5t2 3.5t2 3.5q1 4 2 7t1 6q0 2 -1 4l-2 4q-5 5 -15 9.5t-27 4.5q-99 0 -122.5 -73t-31.5 -175q-1 -11 -2 -22.5t-2 -22.5h176v0z" />
    <glyph glyph-name="glyph237" unicode="&#x2c6;" 
 />
    <glyph glyph-name="glyph238" 
 />
    <glyph glyph-name="glyph239" 
 />
    <glyph glyph-name="glyph240" 
 />
    <glyph glyph-name="glyph241" 
 />
    <glyph glyph-name="glyph242" 
 />
    <glyph glyph-name="glyph243" unicode="&#x2039;" horiz-adv-x="387" 
d="M269 8l-10 -8q-38 65 -85.5 117t-103.5 93q76 41 149.5 92.5t143.5 115.5l7 -7q-43 -55 -90.5 -105t-97.5 -97q28 -49 49.5 -99t37.5 -102v0z" />
    <glyph glyph-name="glyph244" 
 />
    <glyph glyph-name="glyph245" 
 />
    <glyph glyph-name="glyph246" 
 />
    <glyph glyph-name="glyph247" 
 />
    <glyph glyph-name="glyph248" 
 />
    <glyph glyph-name="glyph249" 
 />
    <glyph glyph-name="glyph250" 
 />
    <glyph glyph-name="glyph251" 
 />
    <glyph glyph-name="glyph252" 
 />
    <glyph glyph-name="glyph253" 
 />
    <glyph glyph-name="glyph254" 
 />
    <glyph glyph-name="glyph255" 
 />
    <glyph glyph-name="glyph256" 
 />
    <glyph glyph-name="glyph257" unicode="&#x2022;" horiz-adv-x="698" 
d="M258 350q0 41 28.5 69.5t69.5 28.5t69.5 -28.5t28.5 -69.5t-28.5 -69.5t-69.5 -28.5q-40 0 -69 28.5t-29 69.5v0z" />
    <glyph glyph-name="glyph258" unicode="&#x153;" horiz-adv-x="685" 
d="M163 230h168l48 182h-96l4 14h182l-58 -216q21 31 55.5 53t76.5 22q44 0 75.5 -29t31.5 -79q0 -63 -58.5 -117.5t-129.5 -66.5q-9 -1 -17.5 -2t-17.5 -1q-55 0 -88.5 36t-33.5 90q0 8 1 15.5t3 15.5l2 8l2 8t2 7.5t2 6.5l10 39h-168l-55 -216h-90l109 412h-95l3 14h182
l-50 -196v0zM543 131l9 32q1 5 2.5 12t2.5 15q2 7 2.5 15t0.5 13q0 2 -0.5 8.5t-3.5 13.5q-4 8 -12.5 15t-25.5 7q-19 0 -34 -6.5t-30 -20.5q-9 -9 -18.5 -20.5t-19.5 -25.5q-9 -13 -15.5 -29t-11.5 -32q-6 -20 -9 -38t-3 -31q0 -22 14 -39t46 -17q38 0 61 26t42 92
q1 2 1.5 4.5t1.5 5.5v0z" />
    <glyph glyph-name="macron" unicode="&#xaf;" horiz-adv-x="388" 
d="M224 643h-92l4 18h295l-5 -18h-93l-155 -625h92l-4 -18h-294l4 18h93l155 625v0zM122 738q0 22 13 29t29 9h10h10h1h2h2h2h8h8q17 -1 30.5 -8t13.5 -30t-13.5 -30t-30.5 -8h-8h-8h-2h-2h-2h-1h-10h-10q-16 2 -29 9t-13 29v0zM349 738q0 22 13 29t29 9h10h10h1h2h2h1h10
t10 -1q15 -1 28 -8.5t13 -28.5t-13 -28.5t-28 -8.5q-5 -1 -10 -1h-10h-1h-2h-2h-1h-10h-10q-16 2 -29 9t-13 29v0z" />
    <glyph glyph-name="macron" unicode="&#x407;" horiz-adv-x="388" 
d="M224 643h-92l4 18h295l-5 -18h-93l-155 -625h92l-4 -18h-294l4 18h93l155 625v0zM122 738q0 22 13 29t29 9h10h10h1h2h2h2h8h8q17 -1 30.5 -8t13.5 -30t-13.5 -30t-30.5 -8h-8h-8h-2h-2h-2h-1h-10h-10q-16 2 -29 9t-13 29v0zM349 738q0 22 13 29t29 9h10h10h1h2h2h1h10
t10 -1q15 -1 28 -8.5t13 -28.5t-13 -28.5t-28 -8.5q-5 -1 -10 -1h-10h-1h-2h-2h-1h-10h-10q-16 2 -29 9t-13 29v0z" />
    <glyph glyph-name="atilde" unicode="&#xe3;" horiz-adv-x="392" 
d="M325 151l14 -8q-8 -12 -21 -30t-31 -37q-31 -33 -75 -59.5t-99 -26.5q-45 0 -67 20.5t-29 45.5q-2 6 -2.5 12t-0.5 12q0 30 19 55t48 49q16 14 34.5 27.5t36.5 28.5q1 0 1.5 0.5l1.5 1.5q51 39 80 60.5t38 38.5q3 5 4 9.5t1 9.5v4v4q-1 20 -10.5 37.5t-41.5 17.5
q-4 0 -8 -0.5t-8 -1.5q-31 -5 -60 -27.5t-50 -48.5q-5 -6 -9 -11.5t-8 -11.5l-13 8q51 68 91.5 87.5t72.5 19.5q47 0 81.5 -23.5t34.5 -62.5q0 -31 -13 -53t-30 -36l-172 -148q-12 -10 -21 -24.5t-13 -29.5q-2 -5 -2.5 -10t-0.5 -10q0 -3 1 -6t3 -7q4 -7 14 -13t28 -6
q14 0 29 5t31 13q33 20 64.5 53.5t56.5 71.5v0z" />
    <glyph glyph-name="atilde" unicode="&#x433;" horiz-adv-x="392" 
d="M325 151l14 -8q-8 -12 -21 -30t-31 -37q-31 -33 -75 -59.5t-99 -26.5q-45 0 -67 20.5t-29 45.5q-2 6 -2.5 12t-0.5 12q0 30 19 55t48 49q16 14 34.5 27.5t36.5 28.5q1 0 1.5 0.5l1.5 1.5q51 39 80 60.5t38 38.5q3 5 4 9.5t1 9.5v4v4q-1 20 -10.5 37.5t-41.5 17.5
q-4 0 -8 -0.5t-8 -1.5q-31 -5 -60 -27.5t-50 -48.5q-5 -6 -9 -11.5t-8 -11.5l-13 8q51 68 91.5 87.5t72.5 19.5q47 0 81.5 -23.5t34.5 -62.5q0 -31 -13 -53t-30 -36l-172 -148q-12 -10 -21 -24.5t-13 -29.5q-2 -5 -2.5 -10t-0.5 -10q0 -3 1 -6t3 -7q4 -7 14 -13t28 -6
q14 0 29 5t31 13q33 20 64.5 53.5t56.5 71.5v0z" />
    <glyph glyph-name="adieresis" unicode="&#xe4;" horiz-adv-x="525" 
d="M382 324h5q3 8 6 18.5t6 22.5q3 11 6 23.5t5 25.5q4 19 6.5 37.5t2.5 33.5q0 74 -25 107.5t-54 44.5q-11 4 -22 5.5t-20 1.5q-52 0 -88 -36t-61 -79q-3 -6 -6.5 -11.5t-6.5 -11.5l-14 10q21 39 42.5 65.5t43.5 43.5q31 24 61 32.5t57 8.5q14 0 30.5 -3t33.5 -12
q37 -18 68.5 -68t31.5 -152q0 -180 -82 -310.5t-210 -130.5q-72 0 -110.5 43t-51.5 95q-4 15 -6 30.5t-2 29.5q0 11 1.5 21.5t3.5 21.5q19 78 91 142t161 64q53 0 74.5 -31t22.5 -82v0zM145 274l-26 -101q-2 -8 -4 -18t-3 -20t-2 -19t-1 -17q0 -52 27.5 -74t60.5 -22
q44 0 71.5 27t42.5 60q6 13 10.5 25.5t7.5 23.5l26 97q3 10 4.5 19t2.5 17q2 12 2.5 24.5t0.5 27.5q0 8 -0.5 18t-3.5 20q-5 23 -21 42t-52 19q-13 0 -27.5 -3.5t-30.5 -11.5q-24 -14 -47.5 -45.5t-37.5 -88.5v0z" />
    <glyph glyph-name="adieresis" unicode="&#x434;" horiz-adv-x="525" 
d="M382 324h5q3 8 6 18.5t6 22.5q3 11 6 23.5t5 25.5q4 19 6.5 37.5t2.5 33.5q0 74 -25 107.5t-54 44.5q-11 4 -22 5.5t-20 1.5q-52 0 -88 -36t-61 -79q-3 -6 -6.5 -11.5t-6.5 -11.5l-14 10q21 39 42.5 65.5t43.5 43.5q31 24 61 32.5t57 8.5q14 0 30.5 -3t33.5 -12
q37 -18 68.5 -68t31.5 -152q0 -180 -82 -310.5t-210 -130.5q-72 0 -110.5 43t-51.5 95q-4 15 -6 30.5t-2 29.5q0 11 1.5 21.5t3.5 21.5q19 78 91 142t161 64q53 0 74.5 -31t22.5 -82v0zM145 274l-26 -101q-2 -8 -4 -18t-3 -20t-2 -19t-1 -17q0 -52 27.5 -74t60.5 -22
q44 0 71.5 27t42.5 60q6 13 10.5 25.5t7.5 23.5l26 97q3 10 4.5 19t2.5 17q2 12 2.5 24.5t0.5 27.5q0 8 -0.5 18t-3.5 20q-5 23 -21 42t-52 19q-13 0 -27.5 -3.5t-30.5 -11.5q-24 -14 -47.5 -45.5t-37.5 -88.5v0z" />
    <glyph glyph-name="odieresis" unicode="&#xf6;" horiz-adv-x="535" 
d="M479 426l-97 -367q0 -1 -0.5 -2.5t-0.5 -3.5t-0.5 -3t-0.5 -2q0 -3 -0.5 -6t-0.5 -5q0 -8 4 -12t10 -5q1 -1 3 -1h3q11 0 27.5 14.5t44.5 60.5q2 4 4 7.5t4 6.5q1 1 1.5 2l1.5 3q3 4 5.5 9t5.5 12l14 -7l-10 -20q-11 -20 -17.5 -37.5t-10.5 -34.5q-3 -13 -5 -26t-4 -27
q0 -3 -0.5 -5.5t-0.5 -5.5q-8 -71 -32.5 -128.5t-126.5 -62.5l-6 11q12 2 19.5 7t14.5 16q14 23 37.5 75.5t87.5 141.5l-4 3q-4 -6 -8.5 -10.5l-8.5 -8.5q-20 -17 -39 -21t-32 -4q-30 0 -47 17.5t-17 48.5q0 14 2 25t5 21q1 2 1 3.5t1 2.5q0 2 0.5 4t1.5 4l4 17h-3
q-24 -37 -58 -69.5t-71 -52.5q-19 -10 -38 -15.5t-36 -5.5q-42 0 -61 24t-19 67q0 4 1.5 11.5t2.5 15.5q1 2 1 3.5t1 3.5l2 10t2 8l74 279h-96l4 14h181l-82 -319l-2 -12t-2 -11q-1 -6 -1 -12v-12q0 -2 1 -6.5t3 -9.5q4 -7 11.5 -13t21.5 -6q16 0 34 8.5t37 23.5
q25 20 49.5 48t42.5 58q4 6 7.5 12t6.5 12l63 239h90v0z" />
    <glyph glyph-name="odieresis" unicode="&#x446;" horiz-adv-x="535" 
d="M479 426l-97 -367q0 -1 -0.5 -2.5t-0.5 -3.5t-0.5 -3t-0.5 -2q0 -3 -0.5 -6t-0.5 -5q0 -8 4 -12t10 -5q1 -1 3 -1h3q11 0 27.5 14.5t44.5 60.5q2 4 4 7.5t4 6.5q1 1 1.5 2l1.5 3q3 4 5.5 9t5.5 12l14 -7l-10 -20q-11 -20 -17.5 -37.5t-10.5 -34.5q-3 -13 -5 -26t-4 -27
q0 -3 -0.5 -5.5t-0.5 -5.5q-8 -71 -32.5 -128.5t-126.5 -62.5l-6 11q12 2 19.5 7t14.5 16q14 23 37.5 75.5t87.5 141.5l-4 3q-4 -6 -8.5 -10.5l-8.5 -8.5q-20 -17 -39 -21t-32 -4q-30 0 -47 17.5t-17 48.5q0 14 2 25t5 21q1 2 1 3.5t1 2.5q0 2 0.5 4t1.5 4l4 17h-3
q-24 -37 -58 -69.5t-71 -52.5q-19 -10 -38 -15.5t-36 -5.5q-42 0 -61 24t-19 67q0 4 1.5 11.5t2.5 15.5q1 2 1 3.5t1 3.5l2 10t2 8l74 279h-96l4 14h181l-82 -319l-2 -12t-2 -11q-1 -6 -1 -12v-12q0 -2 1 -6.5t3 -9.5q4 -7 11.5 -13t21.5 -6q16 0 34 8.5t37 23.5
q25 20 49.5 48t42.5 58q4 6 7.5 12t6.5 12l63 239h90v0z" />
    <glyph glyph-name="divide" unicode="&#xf7;" horiz-adv-x="479" 
d="M297 290l36 136h90l-97 -367q0 -1 -0.5 -2.5t-0.5 -2.5l-1.5 -3t-0.5 -3v-2v-2v-2v-1v-2v-2t0.5 -3t1.5 -4q1 -4 5.5 -7.5t12.5 -3.5t18 6.5t23 23.5q2 3 4.5 6t4.5 6q5 7 10 14.5t10 14.5q7 12 13.5 23.5t10.5 20.5l14 -7q-15 -29 -28.5 -51.5t-26.5 -38.5
q-20 -25 -42 -36t-49 -11q-31 0 -48 18.5t-17 47.5q0 11 2.5 24.5t8.5 35.5l32 119h-1q-6 -8 -13.5 -16t-16.5 -16q-28 -28 -65 -50.5t-78 -22.5q-36 0 -57 19.5t-21 59.5q0 5 1 11.5t3 13.5q1 3 1.5 6t1.5 5q1 4 1.5 6.5t1.5 5.5l46 155h-73l4 14h159l-57 -210
q-1 -3 -1.5 -9.5t-1.5 -13.5q0 -6 -0.5 -12t-0.5 -10q0 -6 8.5 -10t24.5 -4t37.5 11t44.5 33q18 16 35 38.5t31 50.5v0z" />
    <glyph glyph-name="divide" unicode="&#x447;" horiz-adv-x="479" 
d="M297 290l36 136h90l-97 -367q0 -1 -0.5 -2.5t-0.5 -2.5l-1.5 -3t-0.5 -3v-2v-2v-2v-1v-2v-2t0.5 -3t1.5 -4q1 -4 5.5 -7.5t12.5 -3.5t18 6.5t23 23.5q2 3 4.5 6t4.5 6q5 7 10 14.5t10 14.5q7 12 13.5 23.5t10.5 20.5l14 -7q-15 -29 -28.5 -51.5t-26.5 -38.5
q-20 -25 -42 -36t-49 -11q-31 0 -48 18.5t-17 47.5q0 11 2.5 24.5t8.5 35.5l32 119h-1q-6 -8 -13.5 -16t-16.5 -16q-28 -28 -65 -50.5t-78 -22.5q-36 0 -57 19.5t-21 59.5q0 5 1 11.5t3 13.5q1 3 1.5 6t1.5 5q1 4 1.5 6.5t1.5 5.5l46 155h-73l4 14h159l-57 -210
q-1 -3 -1.5 -9.5t-1.5 -13.5q0 -6 -0.5 -12t-0.5 -10q0 -6 8.5 -10t24.5 -4t37.5 11t44.5 33q18 16 35 38.5t31 50.5v0z" />
    <glyph glyph-name="oslash" unicode="&#xf8;" horiz-adv-x="778" 
d="M722 426l-97 -367q0 -1 -0.5 -2.5t-0.5 -3.5t-0.5 -3.5t-0.5 -2.5q-1 -3 -1 -5.5v-4.5q0 -7 3.5 -10.5t7.5 -5.5q3 -1 5.5 -1.5t3.5 -0.5q5 0 9.5 2t9.5 5q9 7 17.5 17t15.5 20q6 9 11 17t9 14q2 4 4 7.5t4 6.5q1 1 1.5 2l1.5 3q3 4 5.5 9t5.5 12l14 -7
q-43 -95 -81.5 -116t-64.5 -21q-31 0 -47.5 19t-16.5 47q0 12 2 22.5t5 20.5q1 5 2 9l2 8l4 17h-3q-5 -10 -12 -20t-15 -20q-26 -35 -61 -64t-71 -37q-5 -1 -10 -1.5t-10 -0.5q-43 0 -61.5 24.5t-18.5 66.5q0 5 1 12t3 14q0 2 0.5 4t1.5 4q1 5 2 9.5t2 8.5h-7
q-5 -10 -12 -20t-15 -20q-26 -35 -61 -64t-71 -37q-5 -1 -10 -1.5t-10 -0.5q-43 0 -61.5 24.5t-18.5 66.5q0 4 1.5 11.5t2.5 15.5q1 2 1 3.5t1 3.5l2 10t2 8l73 279h-95l4 14h181l-82 -312l-2 -12t-2 -11q-1 -6 -1 -12v-12q0 -15 6 -22t14 -10q5 -2 9.5 -2.5t7.5 -0.5
q16 0 36 12.5t41 34.5q20 21 40 51t36 64l63 232h90l-82 -312l-2 -12t-2 -11q-1 -6 -1 -12v-12q0 -15 6 -22t14 -10q5 -2 9.5 -2.5t7.5 -0.5q16 0 36 12.5t41 34.5q20 21 40 51t36 64l63 232h90v0z" />
    <glyph glyph-name="oslash" unicode="&#x448;" horiz-adv-x="778" 
d="M722 426l-97 -367q0 -1 -0.5 -2.5t-0.5 -3.5t-0.5 -3.5t-0.5 -2.5q-1 -3 -1 -5.5v-4.5q0 -7 3.5 -10.5t7.5 -5.5q3 -1 5.5 -1.5t3.5 -0.5q5 0 9.5 2t9.5 5q9 7 17.5 17t15.5 20q6 9 11 17t9 14q2 4 4 7.5t4 6.5q1 1 1.5 2l1.5 3q3 4 5.5 9t5.5 12l14 -7
q-43 -95 -81.5 -116t-64.5 -21q-31 0 -47.5 19t-16.5 47q0 12 2 22.5t5 20.5q1 5 2 9l2 8l4 17h-3q-5 -10 -12 -20t-15 -20q-26 -35 -61 -64t-71 -37q-5 -1 -10 -1.5t-10 -0.5q-43 0 -61.5 24.5t-18.5 66.5q0 5 1 12t3 14q0 2 0.5 4t1.5 4q1 5 2 9.5t2 8.5h-7
q-5 -10 -12 -20t-15 -20q-26 -35 -61 -64t-71 -37q-5 -1 -10 -1.5t-10 -0.5q-43 0 -61.5 24.5t-18.5 66.5q0 4 1.5 11.5t2.5 15.5q1 2 1 3.5t1 3.5l2 10t2 8l73 279h-95l4 14h181l-82 -312l-2 -12t-2 -11q-1 -6 -1 -12v-12q0 -15 6 -22t14 -10q5 -2 9.5 -2.5t7.5 -0.5
q16 0 36 12.5t41 34.5q20 21 40 51t36 64l63 232h90l-82 -312l-2 -12t-2 -11q-1 -6 -1 -12v-12q0 -15 6 -22t14 -10q5 -2 9.5 -2.5t7.5 -0.5q16 0 36 12.5t41 34.5q20 21 40 51t36 64l63 232h90v0z" />
    <glyph glyph-name="udieresis" unicode="&#xfc;" horiz-adv-x="433" 
d="M117 412h-96l4 14h182l-54 -202q21 31 55.5 53t76.5 22q53 0 79.5 -33.5t26.5 -74.5q0 -76 -69.5 -138t-152.5 -63h-1.5h-1.5q-54 0 -88.5 36.5t-34.5 89.5q0 5 1.5 13.5t3.5 17.5q0 2 0.5 5t1.5 6q1 6 2.5 11t2.5 8l62 235v0zM282 131l12 46q1 5 2.5 11.5t2.5 12.5
q1 8 2 16.5t1 14.5q0 18 -7 27t-15 12q-7 4 -13 4.5t-8 0.5q-14 0 -44.5 -13t-67.5 -78q-3 -4 -6 -12t-6 -18q-2 -8 -4.5 -16.5t-4.5 -17.5q-5 -19 -8 -36.5t-3 -25.5q0 -4 1 -9.5t2 -10.5q5 -14 18 -25t40 -11q35 0 60.5 24.5t45.5 103.5v0z" />
    <glyph glyph-name="udieresis" unicode="&#x44c;" horiz-adv-x="433" 
d="M117 412h-96l4 14h182l-54 -202q21 31 55.5 53t76.5 22q53 0 79.5 -33.5t26.5 -74.5q0 -76 -69.5 -138t-152.5 -63h-1.5h-1.5q-54 0 -88.5 36.5t-34.5 89.5q0 5 1.5 13.5t3.5 17.5q0 2 0.5 5t1.5 6q1 6 2.5 11t2.5 8l62 235v0zM282 131l12 46q1 5 2.5 11.5t2.5 12.5
q1 8 2 16.5t1 14.5q0 18 -7 27t-15 12q-7 4 -13 4.5t-8 0.5q-14 0 -44.5 -13t-67.5 -78q-3 -4 -6 -12t-6 -18q-2 -8 -4.5 -16.5t-4.5 -17.5q-5 -19 -8 -36.5t-3 -25.5q0 -4 1 -9.5t2 -10.5q5 -14 18 -25t40 -11q35 0 60.5 24.5t45.5 103.5v0z" />
    <glyph glyph-name="thorn" unicode="&#xfe;" horiz-adv-x="742" 
d="M162 230h115q21 76 71.5 123t106.5 68q22 8 44 12t42 4q77 0 118 -56.5t41 -127.5q0 -10 -1 -19.5t-3 -18.5q-16 -85 -89.5 -155t-167.5 -70q-79 0 -124.5 59t-45.5 139q0 3 0.5 6.5t0.5 7.5q1 4 1.5 7.5t1.5 6.5h-114l-56 -216h-89l109 412h-96l4 14h182l-51 -196v0z
M389 282l-35 -130q-1 -4 -2 -10.5t-2 -13.5q-1 -6 -1.5 -12t-0.5 -10q0 -52 26 -77.5t65 -25.5q50 0 83 37t45 81l39 144q2 6 3 14.5t2 17.5t1.5 17.5t0.5 14.5q0 44 -21 69t-54 25q-46 0 -77.5 -27.5t-49.5 -60.5q-8 -14 -13.5 -27.5t-8.5 -25.5v0z" />
    <glyph glyph-name="thorn" unicode="&#x44e;" horiz-adv-x="742" 
d="M162 230h115q21 76 71.5 123t106.5 68q22 8 44 12t42 4q77 0 118 -56.5t41 -127.5q0 -10 -1 -19.5t-3 -18.5q-16 -85 -89.5 -155t-167.5 -70q-79 0 -124.5 59t-45.5 139q0 3 0.5 6.5t0.5 7.5q1 4 1.5 7.5t1.5 6.5h-114l-56 -216h-89l109 412h-96l4 14h182l-51 -196v0z
M389 282l-35 -130q-1 -4 -2 -10.5t-2 -13.5q-1 -6 -1.5 -12t-0.5 -10q0 -52 26 -77.5t65 -25.5q50 0 83 37t45 81l39 144q2 6 3 14.5t2 17.5t1.5 17.5t0.5 14.5q0 44 -21 69t-54 25q-46 0 -77.5 -27.5t-49.5 -60.5q-8 -14 -13.5 -27.5t-8.5 -25.5v0z" />
    <glyph glyph-name="glyph267" 
 />
    <glyph glyph-name="glyph268" 
 />
    <glyph glyph-name="glyph269" 
 />
    <glyph glyph-name="glyph270" 
 />
    <glyph glyph-name="glyph271" 
 />
    <glyph glyph-name="glyph272" 
 />
    <glyph glyph-name="glyph273" 
 />
    <glyph glyph-name="glyph274" 
 />
    <glyph glyph-name="glyph275" 
 />
    <glyph glyph-name="glyph276" 
 />
    <glyph glyph-name="glyph277" 
 />
    <glyph glyph-name="glyph278" 
 />
    <glyph glyph-name="glyph279" 
 />
    <glyph glyph-name="glyph280" 
 />
    <glyph glyph-name="glyph281" 
 />
    <glyph glyph-name="glyph282" 
 />
    <glyph glyph-name="glyph283" 
 />
    <glyph glyph-name="glyph284" 
 />
    <glyph glyph-name="glyph285" 
 />
    <glyph glyph-name="glyph286" 
 />
    <glyph glyph-name="glyph287" 
 />
    <glyph glyph-name="glyph288" 
 />
    <glyph glyph-name="glyph289" 
 />
    <glyph glyph-name="glyph290" 
 />
    <glyph glyph-name="glyph291" 
 />
    <glyph glyph-name="glyph292" 
 />
    <glyph glyph-name="glyph293" 
 />
    <glyph glyph-name="glyph294" 
 />
    <glyph glyph-name="glyph295" 
 />
    <glyph glyph-name="glyph296" 
 />
    <glyph glyph-name="glyph297" 
 />
    <glyph glyph-name="glyph298" 
 />
    <glyph glyph-name="glyph299" 
 />
    <glyph glyph-name="glyph300" 
 />
    <glyph glyph-name="glyph301" 
 />
    <glyph glyph-name="glyph302" 
 />
    <glyph glyph-name="glyph303" 
 />
    <glyph glyph-name="glyph304" 
 />
    <glyph glyph-name="glyph305" 
 />
    <glyph glyph-name="glyph306" 
 />
    <glyph glyph-name="glyph307" 
 />
    <glyph glyph-name="glyph308" 
 />
    <glyph glyph-name="glyph309" 
 />
    <glyph glyph-name="glyph310" 
 />
    <glyph glyph-name="glyph311" 
 />
    <glyph glyph-name="glyph312" 
 />
    <glyph glyph-name="glyph313" 
 />
    <glyph glyph-name="glyph314" 
 />
    <glyph glyph-name="glyph315" 
 />
    <glyph glyph-name="glyph316" 
 />
    <glyph glyph-name="glyph317" 
 />
    <glyph glyph-name="glyph318" 
 />
    <glyph glyph-name="glyph319" 
 />
    <glyph glyph-name="glyph320" 
 />
    <glyph glyph-name="glyph321" 
 />
    <glyph glyph-name="glyph322" 
 />
    <glyph glyph-name="glyph323" 
 />
    <glyph glyph-name="glyph324" 
 />
    <glyph glyph-name="glyph325" 
 />
    <glyph glyph-name="glyph326" 
 />
    <glyph glyph-name="glyph327" 
 />
    <glyph glyph-name="glyph328" 
 />
    <glyph glyph-name="glyph329" 
 />
    <glyph glyph-name="glyph330" 
 />
    <glyph glyph-name="glyph331" 
 />
    <glyph glyph-name="glyph332" 
 />
    <glyph glyph-name="glyph333" 
 />
    <glyph glyph-name="glyph334" 
 />
    <glyph glyph-name="glyph335" 
 />
    <glyph glyph-name="glyph336" 
 />
    <glyph glyph-name="glyph337" 
 />
    <glyph glyph-name="glyph338" 
 />
    <glyph glyph-name="glyph339" 
 />
    <glyph glyph-name="glyph340" 
 />
    <glyph glyph-name="glyph341" 
 />
    <glyph glyph-name="glyph342" 
 />
    <glyph glyph-name="glyph343" 
 />
    <glyph glyph-name="glyph344" 
 />
    <glyph glyph-name="glyph345" 
 />
    <glyph glyph-name="glyph346" 
 />
    <glyph glyph-name="glyph347" 
 />
    <glyph glyph-name="glyph348" 
 />
    <glyph glyph-name="glyph349" 
 />
    <glyph glyph-name="glyph350" 
 />
    <glyph glyph-name="glyph351" 
 />
    <glyph glyph-name="glyph352" 
 />
    <glyph glyph-name="glyph353" 
 />
    <glyph glyph-name="glyph354" 
 />
    <glyph glyph-name="glyph355" 
 />
    <glyph glyph-name="glyph356" 
 />
    <glyph glyph-name="glyph357" 
 />
    <glyph glyph-name="glyph358" 
 />
    <glyph glyph-name="glyph359" 
 />
    <glyph glyph-name="glyph360" 
 />
    <glyph glyph-name="glyph361" 
 />
    <glyph glyph-name="glyph362" 
 />
    <glyph glyph-name="glyph363" 
 />
    <glyph glyph-name="glyph364" 
 />
    <glyph glyph-name="glyph365" 
 />
    <glyph glyph-name="glyph366" 
 />
    <glyph glyph-name="glyph367" 
 />
    <glyph glyph-name="glyph368" 
 />
    <glyph glyph-name="glyph369" 
 />
    <glyph glyph-name="glyph370" 
 />
    <glyph glyph-name="glyph371" 
 />
    <glyph glyph-name="glyph372" 
 />
    <glyph glyph-name="glyph373" 
 />
    <glyph glyph-name="glyph374" 
 />
    <glyph glyph-name="glyph375" 
 />
    <glyph glyph-name="glyph376" 
 />
    <glyph glyph-name="glyph377" 
 />
    <glyph glyph-name="glyph378" 
 />
    <glyph glyph-name="glyph379" 
 />
    <glyph glyph-name="glyph380" 
 />
    <glyph glyph-name="glyph381" 
 />
    <glyph glyph-name="glyph382" 
 />
    <glyph glyph-name="glyph383" 
 />
    <glyph glyph-name="glyph384" 
 />
    <glyph glyph-name="glyph385" 
 />
    <glyph glyph-name="glyph386" 
 />
    <glyph glyph-name="glyph387" 
 />
    <glyph glyph-name="glyph388" 
 />
    <glyph glyph-name="glyph389" 
 />
    <glyph glyph-name="glyph390" 
 />
    <glyph glyph-name="glyph391" 
 />
    <glyph glyph-name="glyph392" 
 />
    <glyph glyph-name="glyph393" 
 />
    <glyph glyph-name="glyph394" 
 />
    <glyph glyph-name="glyph395" 
 />
    <glyph glyph-name="glyph396" 
 />
    <glyph glyph-name="glyph397" 
 />
    <glyph glyph-name="glyph398" 
 />
    <glyph glyph-name="glyph399" 
 />
    <glyph glyph-name="glyph400" 
 />
    <glyph glyph-name="glyph401" 
 />
    <glyph glyph-name="glyph402" 
 />
    <glyph glyph-name="glyph403" 
 />
    <glyph glyph-name="glyph404" 
 />
    <glyph glyph-name="glyph405" 
 />
    <glyph glyph-name="glyph406" 
 />
    <glyph glyph-name="glyph407" 
 />
    <glyph glyph-name="glyph408" 
 />
    <glyph glyph-name="glyph409" 
 />
    <glyph glyph-name="glyph410" 
 />
    <glyph glyph-name="glyph411" 
 />
    <glyph glyph-name="glyph412" 
 />
    <glyph glyph-name="glyph413" 
 />
    <glyph glyph-name="glyph414" 
 />
    <glyph glyph-name="glyph415" 
 />
    <glyph glyph-name="glyph416" 
 />
    <glyph glyph-name="glyph417" 
 />
    <glyph glyph-name="glyph418" 
 />
    <glyph glyph-name="glyph419" 
 />
    <glyph glyph-name="glyph420" 
 />
    <glyph glyph-name="glyph421" 
 />
    <glyph glyph-name="glyph422" 
 />
    <glyph glyph-name="glyph423" 
 />
    <glyph glyph-name="glyph424" 
 />
    <glyph glyph-name="glyph425" 
 />
    <glyph glyph-name="glyph426" 
 />
    <glyph glyph-name="glyph427" 
 />
    <glyph glyph-name="glyph428" 
 />
    <glyph glyph-name="glyph429" 
 />
    <glyph glyph-name="glyph430" 
 />
    <glyph glyph-name="glyph431" 
 />
    <glyph glyph-name="glyph432" 
 />
    <glyph glyph-name="glyph433" 
 />
    <glyph glyph-name="glyph434" 
 />
    <glyph glyph-name="glyph435" 
 />
    <glyph glyph-name="glyph436" 
 />
    <glyph glyph-name="glyph437" 
 />
    <glyph glyph-name="glyph438" 
 />
    <glyph glyph-name="glyph439" 
 />
    <glyph glyph-name="glyph440" 
 />
    <glyph glyph-name="glyph441" 
 />
    <glyph glyph-name="amacron" unicode="&#x101;" 
 />
    </font>
</defs>
</svg>
